<?xml version="1.0" standalone="no"?>
<!DOCTYPE svg PUBLIC "-//W3C//DTD SVG 1.1//EN" "http://www.w3.org/Graphics/SVG/1.1/DTD/svg11.dtd">
<svg xmlns="http://www.w3.org/2000/svg">
<metadata>
(c) 2012-2015 GitHub

When using the GitHub logos, be sure to follow the GitHub logo guidelines (https://github.com/logos)

Font License: SIL OFL 1.1 (http://scripts.sil.org/OFL)
Applies to all font files

Code License: MIT (http://choosealicense.com/licenses/mit/)
Applies to all other files
</metadata>
<defs>
<font id="octicons" horiz-adv-x="1024" >
<font-face font-family="octicons" font-weight="400" font-stretch="normal" units-per-em="1024" ascent="832" descent="-192" />
<missing-glyph d="M512 832C229.25 832 0 602.75 0 320c0-226.25 146.688-418.125 350.156-485.812 25.594-4.688 34.938 11.125 34.938 24.625 0 12.188-0.469 52.562-0.719 95.312C242-76.81200000000001 211.906 14.5 211.906 14.5c-23.312 59.125-56.844 74.875-56.844 74.875-46.531 31.75 3.53 31.125 3.53 31.125 51.406-3.562 78.47-52.75 78.47-52.75 45.688-78.25 119.875-55.625 149-42.5 4.654 33 17.904 55.625 32.5 68.375C304.906 106.56200000000001 185.344 150.5 185.344 346.688c0 55.938 19.969 101.562 52.656 137.406-5.219 13-22.844 65.094 5.062 135.562 0 0 42.938 13.75 140.812-52.5 40.812 11.406 84.594 17.031 128.125 17.219 43.5-0.188 87.312-5.875 128.188-17.281 97.688 66.312 140.688 52.5 140.688 52.5 28-70.531 10.375-122.562 5.125-135.5 32.812-35.844 52.625-81.469 52.625-137.406 0-196.688-119.75-240-233.812-252.688 18.438-15.875 34.75-47 34.75-94.75 0-68.438-0.688-123.625-0.688-140.5 0-13.625 9.312-29.562 35.25-24.562C877.438-98 1024 93.875 1024 320 1024 602.75 794.75 832 512 832z" horiz-adv-x="1024" />
<glyph glyph-name="alert" unicode="&#xf02d;" d="M1005.854 31.753000000000043l-438.286 767C556.173 818.694 534.967 831 512 831s-44.173-12.306-55.567-32.247l-438.286-767c-11.319-19.809-11.238-44.144 0.213-63.876C29.811-51.85500000000002 50.899-64 73.714-64h876.572c22.814 0 43.903 12.145 55.354 31.877S1017.173 11.94399999999996 1005.854 31.753000000000043zM576 64H448V192h128V64zM576 256H448V512h128V256z" horiz-adv-x="1024" />
<glyph glyph-name="alignment-align" unicode="&#xf08a;" d="M192 768C85.938 768 0 682.062 0 576s85.938-192 192-192c106.062 0 192 85.938 192 192S298.062 768 192 768zM672 224l160 160H384v-448l160 160 288-288 128 128L672 224z" horiz-adv-x="960" />
<glyph glyph-name="alignment-aligned-to" unicode="&#xf08e;" d="M384 256l128 128 288-288 160 160v-448H512l160 160L384 256zM192 384C85.938 384 0 469.938 0 576S85.938 768 192 768c106.062 0 192-85.938 192-192S298.062 384 192 384z" horiz-adv-x="960" />
<glyph glyph-name="alignment-unalign" unicode="&#xf08b;" d="M512 640L384 512 128 768 0 640l256-256L128 256l64-64 384 384L512 640zM640 256l128 128-64 64L320 64l64-64 128 128 256-256 128 128L640 256z" horiz-adv-x="896" />
<glyph glyph-name="arrow-down" unicode="&#xf03f;" d="M448 384V640H192v-256H0l320-384 320 384H448z" horiz-adv-x="640" />
<glyph glyph-name="arrow-left" unicode="&#xf040;" d="M384 448V640L0 320l384-320V192h256V448H384z" horiz-adv-x="640" />
<glyph glyph-name="arrow-right" unicode="&#xf03e;" d="M640 320L256 640v-192H0v-256h256v-192L640 320z" horiz-adv-x="640" />
<glyph glyph-name="arrow-small-down" unicode="&#xf0a0;" d="M256 384V512H128v-128H0l192-256 192 256H256z" horiz-adv-x="384" />
<glyph glyph-name="arrow-small-left" unicode="&#xf0a1;" d="M256 384V512L0 320l256-192V256h128V384H256z" horiz-adv-x="384" />
<glyph glyph-name="arrow-small-right" unicode="&#xf071;" d="M384 320L128 512v-128H0v-128h128v-128L384 320z" horiz-adv-x="384" />
<glyph glyph-name="arrow-small-up" unicode="&#xf09f;" d="M192 512L0 256h128v-128h128V256h128L192 512z" horiz-adv-x="384" />
<glyph glyph-name="arrow-up" unicode="&#xf03d;" d="M320 640L0 256h192v-256h256V256h192L320 640z" horiz-adv-x="640" />
<glyph glyph-name="beer" unicode="&#xf069;" d="M896 576c-31 0-192 0-192 0v128c0 71-158 128-352 128s-352-57-352-128v-768c0-71 158-128 352-128s352 57 352 128v128s160 0 192 0 64 30 64 64 0 350 0 384-29 64-64 64z m-704-576h-64v512h64v-512z m192-64h-64v512h64v-512z m192 64h-64v512h64v-512z m-224 640c-124 0-224 29-224 64s100 64 224 64 224-29 224-64-100-64-224-64z m480-448h-128v256h128v-256z" horiz-adv-x="1024" />
<glyph glyph-name="book" unicode="&#xf007;" d="M768 256h-128c-34 0-64-32-64-64h256c0 34-32 64-64 64z m-55 416c-167 0-209-32-233-56-24 24-66 56-233 56s-247-46-247-78v-586c29 16 119 48 214 56 115 9 234-9 234-32 0-16 8-31 31-32 0 0 0 0 1 0 0 0 0 0 1 0 23 1 31 16 31 32 0 23 119 41 234 32 94-7 185-40 214-56v586c0 32-80 78-247 78z m-265-572c-30 16-103 28-192 28s-170-12-192-27c0 0 0 411 0 443s64 59 192 59 192-27 192-59 0-444 0-444z m448 1c-22 15-103 27-192 27s-162-12-192-28c0 0 0 412 0 444s64 59 192 59 192-27 192-59 0-443 0-443z m-128 283h-128c-34 0-64-32-64-64h256c0 34-32 64-64 64z m0 128h-128c-34 0-64-32-64-64h256c0 34-32 64-64 64z m-448-128h-128c-32 0-64-30-64-64h256c0 32-30 64-64 64z m0-128h-128c-32 0-64-30-64-64h256c0 32-30 64-64 64z m0 256h-128c-32 0-64-30-64-64h256c0 32-30 64-64 64z" horiz-adv-x="1024" />
<glyph glyph-name="bookmark" unicode="&#xf07b;" d="M0 704v-768l192 128 192-128V704H0zM316.25 507.25l-71.875-51.938 27.188-83.406c2.75-8.375-0.688-11.062-7.562-6.594l-72 52.094-72-52.031c-6.844-4.469-10.312-1.781-7.562 6.594l27.219 83.406L67.783 507.25c-6.469 5.125-5 9.219 3.906 9.219l88 0.125 27.125 83.094c2.812 8.812 7.562 8.812 10.375 0l27.188-83.094 87.938-0.125C321.25 516.469 322.688 512.375 316.25 507.25z" horiz-adv-x="384" />
<glyph glyph-name="briefcase" unicode="&#xf0d3;" d="M896 640H640v66c0 34.2-27.8 62-62 62H446c-34.2 0-62-27.8-62-62v-66H128c-35.3 0-64-28.7-64-64v-512c0-35.3 28.7-64 64-64h768c35.3 0 64 28.7 64 64V576C960 611.3 931.3 640 896 640zM448 688c0 8.8 7.2 16 16 16h96c8.8 0 16-7.2 16-16v-48H448V688zM896 320H576v-64H448v64H128V576h64v-192h640V576h64V320z" horiz-adv-x="1024" />
<glyph glyph-name="broadcast" unicode="&#xf048;" d="M448 640c142 0 256-115 256-256 0-69-28-132-72-178l-16-93c91 56 152 156 152 271 0 177-143 320-320 320s-320-143-320-320c0-115 61-215 152-271l-16 93c-45 46-72 109-72 178 0 142 114 256 256 256z m-64-320c-36 0-64-29-64-64v-128c0-36 30-64 64-64v-256h128v256c34 0 64 28 64 64v128c0 35-28 64-64 64s-64 0-64 0-28 0-64 0z m192 128c0 71-57 128-128 128s-128-57-128-128 57-128 128-128 128 57 128 128z m-128 384c-247 0-448-201-448-448 0-197 128-363 305-423l-12 72c-135 60-229 194-229 351 0 212 172 384 384 384s384-172 384-384c0-157-94-291-229-351l-12-72c177 60 305 225 305 423 0 247-201 448-448 448z" horiz-adv-x="896" />
<glyph glyph-name="browser" unicode="&#xf0c5;" d="M320 640h64v-64h-64V640zM192 640h64v-64h-64V640zM64 640h64v-64H64V640zM832 0H64V512h768V0zM832 576H448v64h384V576zM896 640c0 35.35-28.65 64-64 64H64c-35.35 0-64-28.65-64-64v-640c0-35.35 28.65-64 64-64h768c35.35 0 64 28.65 64 64V640z" horiz-adv-x="896" />
<glyph glyph-name="bug" unicode="&#xf091;" d="M243.621 675.469C190.747 618.688 205.34 528 205.34 528s53.968-64 160-64c106.031 0 160.031 64 160.031 64s14.375 89.469-37.375 146.312c32.375 18.031 51.438 44.094 43.562 61.812-8.938 19.969-48.375 21.75-88.25 3.969-14.812-6.594-27.438-14.969-37.25-23.875-12.438 2.25-25.625 3.781-40.72 3.781-14.061 0-26.561-1.344-38.344-3.25-9.656 8.75-22.062 16.875-36.531 23.344-39.875 17.719-79.375 15.938-88.25-3.969C194.465 718.781 212.497 693.438 243.621 675.469zM644.746 262.25c-8.25 1.75-16.125 2.75-23.75 3.5 0 2.125 0.375 4.125 0.375 6.312 0 33.594-4.75 65.654-12.438 96.125 16.438-1.406 37.375 2.375 58.562 11.779 39.875 17.781 65 48.375 56.125 68.219-8.875 19.969-48.375 21.75-88.25 3.969-18.625-8.312-33.812-19.469-44-30.906-7.75 18.25-16.5 35.781-26.812 51.719-30.188-25.156-87.312-62.719-167.062-71.062v-321.781c0 0-0.25-32-32.031-32-31.75 0-32 32-32 32V401.781c-79.811 8.344-136.968 45.969-167.093 71.062-9.875-15.312-18.375-32-25.938-49.344-10.281 10.625-24.625 20.844-41.969 28.594-39.875 17.719-79.375 15.938-88.25-3.969-8.906-19.906 16.25-50.438 56.125-68.219 19.844-8.846 39.531-12.812 55.469-12.096-7.656-30.404-12.469-62.344-12.469-95.812 0-2.188 0.375-4.25 0.438-6.5-6.719-0.75-13.688-1.75-20.781-3.25-51.969-10.75-91.781-37.625-88.844-59.812 2.938-22.312 47.5-31.5 99.594-20.688 6.781 1.375 13.438 3.125 19.781 5.062C128.684 146 143.34 108.125 163.622 75.5c-12.031-6.062-24.531-15-36.031-26.625C95.715 17 82.779-21.75 98.715-37.68799999999999c15.938-15.937 54.656-3 86.531 28.812 9.344 9.375 16.844 19.25 22.656 29C251.434-22.5 305.965-48 365.465-48c60.343 0 115.781 26.25 159.531 69.938 5.875-10.312 13.75-20.812 23.625-30.688 31.812-31.875 70.625-44.812 86.562-28.875s3 54.625-28.875 86.5c-12.312 12.375-25.688 21.75-38.438 27.938 20.125 32.5 34.625 70.375 43.688 111.062 7.188-2.25 14.688-4.375 22.562-6.062 52.061-10.812 96.625-1.562 99.625 20.688C736.558 224.625 696.746 251.5 644.746 262.25z" horiz-adv-x="733.886" />
<glyph glyph-name="calendar" unicode="&#xf068;" d="M704 320h-64v-128h64V320zM576 320h-64v-128h64V320zM704 512h-64v-128h64V512zM832 320h-64v-128h64V320zM576 128h-64v-128h64V128zM768 832h-64v-128h64V832zM256 832h-64v-128h64V832zM832 512h-64v-128h64V512zM576 512h-64v-128h64V512zM320 128h-64v-128h64V128zM192 320h-64v-128h64V320zM320 320h-64v-128h64V320zM832 768v-128H640V768H320v-128H128V768H0v-896h960V768H832zM896-64H64V576h832V-64zM192 128h-64v-128h64V128zM448 512h-64v-128h64V512zM448 128h-64v-128h64V128zM320 512h-64v-128h64V512zM448 320h-64v-128h64V320zM704 128h-64v-128h64V128z" horiz-adv-x="1024" />
<glyph glyph-name="check" unicode="&#xf03a;" d="M640 640L256 256 128 384 0 256l256-256 512 512L640 640z" horiz-adv-x="768" />
<glyph glyph-name="checklist" unicode="&#xf076;" d="M760.688 315.78099999999995l-49.812 49.656c-6.438 6.529-16.938 6.594-23.375 0L582.5 260.5 462.375 140.125l-93.031 93.125c-6.531 6.562-17.031 6.562-23.5 0l-49.719-49.688c-6.531-6.562-6.531-17.062 0-23.562l104.781-104.875 17.969-17.875 31.688-31.812c6.562-6.562 17.188-6.562 23.562 0l49.625 49.688L760.625 292.22C767.25 298.688 767.25 309.188 760.688 315.78099999999995zM228.469 251.188L278.156 301c42.469 42.375 116.344 42.438 158.781-0.062l25.312-25.312L576 384V704H0v-704h320l-91.531 92.125C184.688 136.062 184.688 207.375 228.469 251.188zM192 640h320v-64H192V640zM192 512h320v-64H192V512zM128 320H64v64h64V320zM128 448H64v64h64V448zM128 576H64v64h64V576zM192 384h64v-64h-64V384z" horiz-adv-x="765.602" />
<glyph glyph-name="chevron-down" unicode="&#xf0a3;" d="M512 512L320 320 128 512 0 384l320-320 320 320L512 512z" horiz-adv-x="640" />
<glyph glyph-name="chevron-left" unicode="&#xf0a4;" d="M448 512L320 640 0 320l320-320 128 128L256 320 448 512z" horiz-adv-x="448" />
<glyph glyph-name="chevron-right" unicode="&#xf078;" d="M128 640L0 512l192-192L0 128l128-128 320 320L128 640z" horiz-adv-x="448" />
<glyph glyph-name="chevron-up" unicode="&#xf0a2;" d="M320 576L0 256l128-128 192 192 192-192 128 128L320 576z" horiz-adv-x="640" />
<glyph glyph-name="circle-slash" unicode="&#xf084;" d="M320 640C143.219 640 0 496.781 0 320c0-176.75 143.219-320 320-320 176.75 0 320 143.25 320 320C640 496.781 496.75 640 320 640zM320 512c27.656 0 53.688-6.094 77.438-16.562L144.562 242.562C134.094 266.312 128 292.34400000000005 128 320 128 426 213.938 512 320 512zM320 128c-28.031 0-54.531 6.375-78.594 17.125l253.906 252.5C505.875 373.812 512 347.719 512 320 512 213.938 426.062 128 320 128z" horiz-adv-x="640" />
<glyph glyph-name="circuit-board" unicode="&#xf0d6;" d="M320 576c35.346 0 64-28.654 64-64 0-35.346-28.654-64-64-64s-64 28.654-64 64C256 547.346 284.654 576 320 576zM960 64c0-106.039-85.961-192-192-192H320l192 192h81.128c22.132-38.258 63.494-64 110.872-64 70.692 0 128 57.308 128 128s-57.308 128-128 128c-47.377 0-88.74-25.742-110.872-64H448L156.044-99.95600000000002C100.845-66.23199999999997 64-5.419999999999959 64 64V576c0 106.039 85.961 192 192 192v-145.128C217.742 600.74 192 559.377 192 512c0-70.692 57.308-128 128-128 47.276 0 88.56 25.633 110.727 63.756l162.416 0.219C615.279 409.731 656.633 384 704 384c70.692 0 128 57.308 128 128s-57.308 128-128 128c-47.388 0-88.758-25.753-110.887-64.025l-162.097-0.219c-11.246 19.54-27.503 35.828-47.016 47.116V768h384c106.039 0 192-85.961 192-192V64zM640 128c0 35.346 28.654 64 64 64s64-28.654 64-64c0-35.346-28.654-64-64-64S640 92.654 640 128zM640 512c0 35.346 28.654 64 64 64s64-28.654 64-64c0-35.346-28.654-64-64-64S640 476.654 640 512z" horiz-adv-x="1024" />
<glyph glyph-name="clippy" unicode="&#xf035;" d="M704-64h-640v576h640v-192h64v320c0 35-29 64-64 64h-192c0 71-57 128-128 128s-128-57-128-128h-192c-35 0-64-29-64-64v-704c0-35 29-64 64-64h640c35 0 64 29 64 64v128h-64v-128z m-512 704c29 0 29 0 64 0s64 29 64 64 29 64 64 64 64-29 64-64 32-64 64-64 33 0 64 0 64-29 64-64h-512c0 39 28 64 64 64z m-64-512h128v64h-128v-64z m448 128v128l-256-192 256-192v128h320v128h-320z m-448-256h192v64h-192v-64z m320 448h-320v-64h320v64z m-192-128h-128v-64h128v64z" horiz-adv-x="896" />
<glyph glyph-name="clock" unicode="&#xf046;" d="M384 256h256l64 64-64 64H512V576l-64 64-64-64V256zM448 768C200.562 768 0 567.438 0 320c0-247.438 200.562-448 448-448 247.438 0 448 200.562 448 448C896 567.438 695.438 768 448 768zM448 0c-176.25 0-320 143.75-320 320 0 175.938 144.188 319.5 320 320 175.812-0.5 320-144.062 320-320C768 143.75 624.25 0 448 0z" horiz-adv-x="896" />
<glyph glyph-name="cloud-download" unicode="&#xf00b;" d="M832 512c-8.75 0-17.125-1.406-25.625-2.562C757.625 623.75 644.125 704 512 704c-132.156 0-245.562-80.25-294.406-194.562C209.156 510.594 200.781 512 192 512 85.938 512 0 426.062 0 320s85.938-192 192-192c20.531 0 39.875 4.25 58.375 10.375C284.469 100.625 331.312 75.25 384 67.5v65.25c-49.844 10.375-91.594 42.812-112.625 87.875C249.531 203 222.219 192 192 192c-70.656 0-128 57.375-128 128 0 70.656 57.344 128 128 128 25.281 0 48.625-7.562 68.406-20.094C281.344 548.219 385.594 640 512 640c126.5 0 229.75-92.219 250.5-212.75 20 13 43.875 20.75 69.5 20.75 70.625 0 128-57.344 128-128 0-70.625-57.375-128-128-128-10.25 0-20 1.5-29.625 3.75C773.438 154.875 725.938 128 672 128c-11.062 0-21.625 1.625-32 4v-64.938c10.438-1.688 21.062-3.062 32-3.062 61.188 0 116.5 24.625 156.938 64.438C830 128.375 830.875 128 832 128c106.062 0 192 85.938 192 192S938.062 512 832 512zM576 320H448v-320H320l192-192 192 192H576V320z" horiz-adv-x="1024" />
<glyph glyph-name="cloud-upload" unicode="&#xf00c;" d="M512 448L320 256h128v-320h128V256h128L512 448zM832 512c-8.75 0-17.125-1.406-25.625-2.562C757.625 623.812 644.125 704 512 704c-132.156 0-245.562-80.188-294.406-194.562C209.156 510.594 200.781 512 192 512 85.938 512 0 426 0 320c0-106.062 85.938-192 192-192 20.531 0 39.875 4.25 58.375 10.438C284.469 100.625 331.312 75.25 384 67.5v65.25c-49.844 10.375-91.594 42.812-112.625 87.75C249.531 203 222.219 192 192 192c-70.656 0-128 57.375-128 128 0 70.656 57.344 128 128 128 25.281 0 48.625-7.562 68.406-20.156C281.344 548.219 385.594 640 512 640c126.5 0 229.75-92.219 250.5-212.75 20 13 43.875 20.75 69.5 20.75 70.625 0 128-57.344 128-128 0-70.625-57.375-128-128-128-10.25 0-20 1.5-29.625 3.75C773.438 154.875 725.938 128 672 128c-11.062 0-21.625 1.625-32 4v-64.938c10.438-1.688 21.062-3.062 32-3.062 61.188 0 116.5 24.688 157 64.438 1 0 1.875-0.438 3-0.438 106.062 0 192 85.938 192 192C1024 426 938.062 512 832 512z" horiz-adv-x="1024" />
<glyph glyph-name="code" unicode="&#xf05f;" d="M608 640l-96-96 224-224L512 96l96-96 288 320L608 640zM288 640L0 320l288-320 96 96L160 320l224 224L288 640z" horiz-adv-x="896" />
<glyph glyph-name="color-mode" unicode="&#xf065;" d="M0 704v-768h768V704H0zM64 0V640h640L64 0z" horiz-adv-x="768" />
<glyph glyph-name="comment" unicode="&#xf02b;" d="M768 704H128C66 704 0 640 0 576v-384c0-128 128-128 128-128h64v-256l256 256c0 0 258 0 320 0s128 68 128 128V576C896 638 832 704 768 704z" horiz-adv-x="896" />
<glyph glyph-name="comment-discussion" unicode="&#xf04f;" d="M256 320c0 64 0 192 0 192s-160 0-192 0-64-32-64-64 0-288 0-320 32-64 64-64 64 0 64 0v-192l194 192s162 0 192 0 62 32 62 64 0 64 0 64-128 0-192 0-128 64-128 128z m576 384c-32 0-416 0-448 0s-64-32-64-64 0-288 0-320 32-64 64-64 190 0 190 0l194-192v192s32 0 64 0 64 32 64 64 0 288 0 320-32 64-64 64z" horiz-adv-x="896" />
<glyph glyph-name="credit-card" unicode="&#xf045;" d="M128 128h128v64h-128v-64z m192 0h128v64h-128v-64z m64 192h-256v-64h256v64z m-128 64h64l128 128h-64l-128-128z m192-128h192v64h-192v-64z m512 384c-32 0-864 0-896 0s-64-32-64-64 0-480 0-512 32-64 64-64 864 0 896 0 64 32 64 64 0 480 0 512-32 64-64 64z m0-256v-288s0-32-32-32h-832c-32 0-32 32-32 32v288h64l128 128h-192v32s0 32 32 32h832c32 0 32-32 32-32v-32h-384l-128-128h512z" horiz-adv-x="1024" />
<glyph glyph-name="dash" unicode="&#xf0ca;" d="M0 384v-128h512V384H0z" horiz-adv-x="512" />
<glyph glyph-name="dashboard" unicode="&#xf07d;" d="M416 367.5c-61.562 0-111.5-49.938-111.5-111.5S354.438 144.5 416 144.5 527.5 194.438 527.5 256c0 8.5-1.125 16.75-3 24.688C606.125 375.625 732.5 523.656 800 608c23.125 28.875-2.312 56.188-32 32-85.188-69.375-232.312-194.688-326.906-275.594C433.031 366.281 424.625 367.5 416 367.5zM447.875 576.125c0 17.656-14.344 32-32 32s-32-14.344-32-32 14.344-32 32-32S447.875 558.469 447.875 576.125zM639.875 320.125c0-17.656 14.375-32 32-32s32 14.344 32 32-14.375 32-32 32S639.875 337.781 639.875 320.125zM287.875 576.125c-17.656 0-32-14.344-32-32s14.344-32 32-32 32 14.344 32 32S305.531 576.125 287.875 576.125zM223.875 448.125c0 17.656-14.344 32-32 32s-32-14.344-32-32 14.344-32 32-32S223.875 430.469 223.875 448.125zM127.875 320.125c0-17.656 14.344-32 32-32s32 14.344 32 32-14.344 32-32 32S127.875 337.781 127.875 320.125zM575.875 544.125c0 17.656-14.375 32-32 32s-32-14.344-32-32 14.375-32 32-32S575.875 526.469 575.875 544.125zM792.875 495.312l-68.75-89.938C731.625 378.188 736 349.625 736 320c0-176.75-143.312-320-320-320S96 143.25 96 320c0 176.688 143.312 320 320 320 65.875 0 127-19.969 177.875-54.094l79.25 60.625C602.375 702.406 513.25 736 416 736 186.25 736 0 549.75 0 320s186.25-416 416-416 416 186.25 416 416C832 382.719 817.75 442 792.875 495.312z" horiz-adv-x="832" />
<glyph glyph-name="database" unicode="&#xf096;" d="M384-128C171.969-128 0-70.625 0 0c0 38.625 0 80.875 0 128 0 11.125 5.562 21.688 13.562 32C56.375 104.875 205.25 64 384 64s327.625 40.875 370.438 96c8-10.312 13.562-20.875 13.562-32 0-37.062 0-76.375 0-128C768-70.625 596-128 384-128zM384 128C171.969 128 0 185.375 0 256c0 38.656 0 80.844 0 128 0 6.781 2.562 13.375 6 19.906l0 0C7.938 408 10.5 412.031 13.562 416 56.375 360.906 205.25 320 384 320s327.625 40.906 370.438 96c3.062-3.969 5.625-8 7.562-12.094l0 0c3.438-6.531 6-13.125 6-19.906 0-37.062 0-76.344 0-128C768 185.375 596 128 384 128zM384 384C171.969 384 0 441.344 0 512c0 20.219 0 41.594 0 64 0 20.344 0 41.469 0 64C0 710.656 171.969 768 384 768c212 0 384-57.344 384-128 0-19.969 0-41.156 0-64 0-19.594 0-40.25 0-64C768 441.344 596 384 384 384zM384 704c-141.375 0-256-28.594-256-64s114.625-64 256-64 256 28.594 256 64S525.375 704 384 704z" horiz-adv-x="768" />
<glyph glyph-name="device-camera" unicode="&#xf056;" d="M512 447.999c-70.691 0-127.999-57.308-127.999-127.999S441.309 192.00099999999998 512 192.00099999999998c5.713 0 11.337 0.38 16.852 1.105-46.344 7.058-81.851 47.079-81.851 95.394 0 53.295 43.204 96.499 96.499 96.499 48.314 0 88.336-35.507 95.394-81.851 0.726 5.515 1.105 11.139 1.105 16.852C639.999 390.691 582.691 447.999 512 447.999zM896 576H767.999L640 704H384L255.999 576H128c-35.348 0-64-28.652-64-64v-448c0-35.347 28.652-64 64-64h768c35.347 0 64 28.653 64 64V512C960 547.348 931.347 576 896 576zM416 640h192l64-64H352L416 640zM160.143 64C142.391 64 128 78.39099999999996 128 96.14300000000003V384h64v64h-64v31.857C128 497.609 142.391 512 160.143 512h182.526c-3.98-3.518-7.881-7.174-11.688-10.98-99.974-99.975-99.974-262.064 0-362.039l74.98-74.98H160.143zM512 128.00099999999998c-106.038 0-191.999 85.961-191.999 191.999S405.962 511.999 512 511.999 703.999 426.038 703.999 320 618.038 128.00099999999998 512 128.00099999999998zM832 352L681.327 512H832V352z" horiz-adv-x="1024" />
<glyph glyph-name="device-camera-video" unicode="&#xf057;" d="M576 640c-35.347 0-64-28.653-64-64s28.653-64 64-64 64 28.653 64 64S611.347 640 576 640zM896 448L768 320v64c0 30.625-21.515 56.21-50.25 62.503C748.958 480.646 768 526.097 768 575.998 768 682.038 682.039 768 576 768c-101.123 0-183.986-78.178-191.45-177.393C350.516 621.306 305.442 640 256 640c-106.038 0-192-85.962-192-192.002C64 341.961 149.962 256 256 256h-64v-128h64v-128c0-35.347 28.653-64 64-64h384c35.347 0 64 28.653 64 64v64l128-128h64V448H896zM256 512c-35.347 0-64-28.653-64-64s28.653-64 64-64v-64c-70.692 0-128 57.308-128 127.999C128 518.692 185.308 576 256 576s128-57.307 128-128h-64C320 483.347 291.347 512 256 512zM576 128H448V256h128V128zM704 237.21299999999997c-33.526 33.547-70.276 70.317-73.373 73.414C624.837 316.418 616.837 320 608 320H416c-17.674 0-32-14.326-32-32v-192c0-8.329 3.183-15.915 8.396-21.607 0.53-0.58 39.123-39.164 74.409-74.393H352c-17.674 0-32 14.326-32 32V352c0 17.674 14.326 32 32 32h320c17.674 0 32-14.326 32-32V237.21299999999997zM576 448c-70.692 0-128 57.308-128 127.999C448 646.692 505.308 704 576 704s128-57.308 128-128.001C704 505.308 646.692 448 576 448zM896 128l-64 64 0.082 128.084L896 384.002V128z" horiz-adv-x="1024" />
<glyph glyph-name="device-desktop" unicode="&#xf27c;" d="M960 768c-32 0-864 0-896 0s-64-32-64-64 0-544 0-576 32-64 64-64 320 0 320 0-192-64-192-128c0-32 32-64 64-64s480 0 512 0 64 32 64 64c0 64-192 128-192 128s288 0 320 0 64 32 64 64 0 544 0 576-32 64-64 64z m0-640h-896v576h896v-576z m-64 512h-192c-384-64-542-300-576-384v-64h768v448z" horiz-adv-x="1024" />
<glyph glyph-name="device-mobile" unicode="&#xf038;" d="M576 832H64C28.688 832 0 803.312 0 768v-896c0-35.375 28.688-64 64-64h512c35.375 0 64 28.625 64 64V768C640 803.312 611.375 832 576 832zM288 768h64c17.625 0 32-14.344 32-32s-14.375-32-32-32h-64c-17.656 0-32 14.344-32 32S270.344 768 288 768zM352-128h-64c-17.656 0-32 14.375-32 32s14.344 32 32 32h64c17.625 0 32-14.375 32-32S369.625-128 352-128zM576 0H64V640h512V0z" horiz-adv-x="640" />
<glyph glyph-name="diff" unicode="&#xf04d;" d="M448 576H320v-128H192v-128h128v-128h128V320h128V448H448V576zM192-64h384V64H192V-64zM640 832H128v-64h480l224-224v-608h64V576L640 832zM0 704v-896h768V512L576 704H0zM704-128H64V640h480l160-160V-128z" horiz-adv-x="896" />
<glyph glyph-name="diff-added" unicode="&#xf06b;" d="M512 512h-128v-128h-128v-128h128v-128h128v128h128v128h-128v128z m320 256c-32 0-736 0-768 0s-64-32-64-64 0-736 0-768 32-64 64-64 736 0 768 0 64 32 64 64 0 736 0 768-32 64-64 64z m-64-736c0-16-17-32-32-32s-558 0-576 0-32 12-32 32c0 16 0 560 0 576s16 32 32 32 561 0 576 0 32-16 32-32 0-560 0-576z" horiz-adv-x="896" />
<glyph glyph-name="diff-ignored" unicode="&#xf099;" d="M832 768h-768c-32 0-64-32-64-64v-768c0-32 32-64 64-64h768c32 0 64 32 64 64v768c0 32-32 64-64 64z m-64-736c0-16-17-32-32-32h-576c-18 0-32 12-32 32v576c0 16 16 32 32 32h576c15 0 32-16 32-32v-576z m-512 194v-98h98l286 286v98h-98l-286-286z" horiz-adv-x="896" />
<glyph glyph-name="diff-modified" unicode="&#xf06d;" d="M832 768h-768c-32 0-64-32-64-64v-768c0-32 32-64 64-64h768c32 0 64 32 64 64v768c0 32-32 64-64 64z m-64-736c0-16-17-32-32-32h-576c-18 0-32 12-32 32v576c0 16 16 32 32 32h576c15 0 32-16 32-32v-576z m-320 416c-71 0-128-57-128-128s57-128 128-128 128 57 128 128-57 128-128 128z" horiz-adv-x="896" />
<glyph glyph-name="diff-removed" unicode="&#xf06c;" d="M832 768h-768c-32 0-64-32-64-64v-768c0-32 32-64 64-64h768c32 0 64 32 64 64v768c0 32-32 64-64 64z m-64-736c0-16-17-32-32-32h-576c-18 0-32 12-32 32v576c0 16 16 32 32 32h576c15 0 32-16 32-32v-576z m-512 224h384v128h-384v-128z" horiz-adv-x="896" />
<glyph glyph-name="diff-renamed" unicode="&#xf06e;" d="M832 768h-768c-32 0-64-32-64-64v-768c0-32 32-64 64-64h768c32 0 64 32 64 64v768c0 32-32 64-64 64z m-64-736c0-16-17-32-32-32h-576c-18 0-32 12-32 32v576c0 16 16 32 32 32h576c15 0 32-16 32-32v-576z m-320 352h-192v-128h192v-128l256 192-256 192v-128z" horiz-adv-x="896" />
<glyph glyph-name="ellipsis" unicode="&#xf09a;" d="M640 512c-64 0-448 0-512 0s-128-64-128-128 0-64 0-128 64-128 128-128 448 0 512 0 128 64 128 128 0 64 0 128-64 128-128 128z m-384-256h-128v128h128v-128z m192 0h-128v128h128v-128z m192 0h-128v128h128v-128z" horiz-adv-x="768" />
<glyph glyph-name="eye" unicode="&#xf04e;" d="M512 704c-192 0-416-128-512-384 96-192 288-320 512-320s416 128 512 320c-96 256-320 384-512 384z m0-640c-192 0-352 128-384 256 32 128 192 256 384 256s352-128 384-256c-32-128-192-256-384-256z m0 448c-20 0-38-4-56-9 33-15 56-48 56-87 0-53-43-96-96-96-39 0-72 23-87 56-5-18-9-36-9-56 0-106 86-192 192-192s192 86 192 192-86 192-192 192z" horiz-adv-x="1024" />
<glyph glyph-name="file-binary" unicode="&#xf094;" d="M0-128V768h576l192-192v-704H0zM704 512L512 704H64v-768h640V512zM320 320H128V576h192V320zM256 512h-64v-128h64V512zM256 64h64v-64H128v64h64V192h-64v64h128V64zM512 384h64v-64H384v64h64V512h-64v64h128V384zM576 0H384V256h192V0zM512 192h-64v-128h64V192z" horiz-adv-x="768" />
<glyph glyph-name="file-code" unicode="&#xf010;" d="M288 448L128 288l160-160 64 64-96 96 96 96L288 448zM416 384l96-96-96-96 64-64 160 160L480 448 416 384zM576 768H0v-896h768V576L576 768zM704-64H64V704h448l192-192V-64z" horiz-adv-x="768" />
<glyph glyph-name="file-directory" unicode="&#xf016;" d="M832 640c-32 0-336 0-352 0s-32 16-32 32 0 0 0 32-32 64-64 64-288 0-320 0-64-32-64-64 0-704 0-704h896s0 544 0 576-32 64-64 64z m-448 0h-320s0 15 0 32 16 32 32 32 241 0 256 0 32-15 32-32 0-32 0-32z" horiz-adv-x="896" />
<glyph glyph-name="file-media" unicode="&#xf012;" d="M576 768H0v-896h768V576L576 768zM704-64H64V704h448l192-192V-64zM128 576v-512h128c0 70.625 57.344 128 128 128-70.656 0-128 57.375-128 128 0 70.656 57.344 128 128 128 70.625 0 128-57.344 128-128 0-70.625-57.375-128-128-128 70.625 0 128-57.375 128-128h128V448L512 576H128z" horiz-adv-x="768" />
<glyph glyph-name="file-pdf" unicode="&#xf014;" d="M576 768H0v-896h768V576L576 768zM64 704h255.812c-13.188-4.094-27.281-15.031-34.625-42.875-13.25-49.406-7.031-130.75 15.625-209.344C276.688 370.562 178.188 175.125 171.531 163.5c-15.625-4.875-65.344-23.625-107.531-59.812V704zM347.125 396.531c57.625-149.781 95-149.531 135.188-167.594C398.344 216 334.219 206.75 249.781 169.5 246.094 163.062 326.281 315.40599999999995 347.125 396.531zM704-64H65.844 64v0.375c0.781-0.062 1.094-0.375 1.844-0.375 33.812 0 84.75 21 180.562 182.375 38.188 15.438 72.062 26.875 78.469 28.938 58.812 14.875 125 26.625 187.562 33.375C566.875 153.5 639.125 135 680.25 132.375c9.625-0.5 16.062 1.188 23.75 2V-64zM704 246.625c-23.688 14.688-54 25-89.125 25-24.25 0-50.625-1.375-78.688-4.375-26.938 13-92.562 32.719-147.188 190.219 17.094 103.625 12.719 173.562 12.719 173.562 6.781 52.938-23.344 72.844-51.625 72.844 0 0-0.279 0.125-0.344 0.125H512l192-192V246.625z" horiz-adv-x="768" />
<glyph glyph-name="file-submodule" unicode="&#xf017;" d="M832 320c-32 0-192 0-192 0 0 32-32 64-64 64s-96 0-128 0-64-32-64-64 0-320 0-320h512s0 224 0 256-32 64-64 64z m-256-64h-128s0 17 0 32 15 32 32 32 48 0 64 0 32-15 32-32 0-32 0-32z m256 320c-32 0-336 0-352 0s-32 17-32 32 0 0 0 32-32 64-64 64-288 0-320 0-64-32-64-64 0-640 0-640h320s0 352 0 384 32 64 64 64 224 0 256 0 64-32 64-64h192s0 96 0 128-32 64-64 64z m-448 0h-320s0 16 0 32 16 32 32 32 240 0 256 0 32-17 32-32 0-32 0-32z" horiz-adv-x="896" />
<glyph glyph-name="file-symlink-directory" unicode="&#xf0b1;" d="M832 640h-352c-16 0-32 16-32 32s0 0 0 32-32 64-64 64h-320c-32 0-64-32-64-64s0-704 0-704h896s0 544 0 576-32 64-64 64z m-768 32c0 17 16 32 32 32h256c15 0 32-15 32-32s0-32 0-32h-320s0 15 0 32z m384-544v128c-125 0-224-56-256-192 0 209 107 320 256 320 0 49 0 128 0 128l256-192-256-192z" horiz-adv-x="896" />
<glyph glyph-name="file-symlink-file" unicode="&#xf0b0;" d="M576 768h-576v-896h768v704l-192 192z m128-832h-640v768h448l192-192v-576z m-320 448c-149 0-256-111-256-320 32 136 131 192 256 192v-128l256 192-256 192s0-79 0-128z" horiz-adv-x="768" />
<glyph glyph-name="file-text" unicode="&#xf011;" d="M448 576H128v-64h320V576zM576 768H0v-896h768V576L576 768zM704-64H64V704h448l192-192V-64zM128 64h512v64H128V64zM128 192h512v64H128V192zM128 320h512v64H128V320z" horiz-adv-x="768" />
<glyph glyph-name="file-zip" unicode="&#xf013;" d="M320 256v64h-64v-64H320zM320 384v64h-64v-64H320zM320 512v64h-64v-64H320zM192 448h64v64h-64V448zM576 768H0v-896h768V576L576 768zM704-64H64V704h192v-64h64v64h192l192-192V-64zM192 576h64v64h-64V576zM192 320h64v64h-64V320zM192 192l-64-64v-128h256V128l-64 64h-64v64h-64V192zM320 128v-64H192v64H320z" horiz-adv-x="768" />
<glyph glyph-name="flame" unicode="&#xf0d2;" d="M433 787c50-134 24-207-32-265-61-64-156-112-223-206-89-125-104-400 217-472-135 71-164 277-18 406-38-125 32-205 119-176 85 29 141-32 139-102-1-48-20-89-69-112 209 37 293 210 293 342 0 174-155 198-77 344-93-8-125-69-116-169 6-66-63-111-114-81-41 25-40 73-4 109 77 76 107 251-115 382z" horiz-adv-x="1024" />
<glyph glyph-name="fold" unicode="&#xf0cc;" d="M896 576H672l-64-64h192L672 384H224L96 512h192l-64 64H0v-63.999L160 352 0 192v-64h224l64 64H96l128 128h448l128-128H608l64-64h224v64L736 352l160 160.001V576zM640 640H512V832H384v-192H256l192-192L640 640zM256 64h128v-192h128V64h128L448 256 256 64z" horiz-adv-x="896" />
<glyph glyph-name="gear" unicode="&#xf02f;" d="M447.938 482C358.531 482 286 409.469 286 320c0-89.375 72.531-162.062 161.938-162.062 89.438 0 161.438 72.688 161.438 162.062C609.375 409.469 537.375 482 447.938 482zM772.625 226.938l-29.188-70.312 52.062-102.25 6.875-13.5-72.188-72.188L611.75 24.625l-70.312-28.875L505.75-113.5l-4.562-14.5H399.156L355-4.687999999999988l-70.312 29-102.404-51.938-13.5-6.75-72.156 72.125 55.875 118.5-28.969 70.25L14.469 262.125 0 266.812V368.781L123.406 413l28.969 70.188-51.906 102.469-6.844 13.438 72.062 72.062 118.594-55.844 70.219 29.031 35.656 109.188L394.75 768h102l44.188-123.469 70.125-29.031L713.5 667.469l13.625 6.844 72.125-72.062-55.875-118.406L772.25 413.5l109.375-35.656L896 373.25v-101.938L772.625 226.938z" horiz-adv-x="896" />
<glyph glyph-name="gift" unicode="&#xf042;" d="M448-128h320V192H448V-128zM64-128h320V192H64V-128zM447.75 455.812c31.469 3.5 66.875 7.406 87.375 9.719C619 474.875 694.5 550.406 703.812 634.25c9.312 83.75-51 144.125-134.688 134.719C503.688 761.656 443.844 714 416 653.625 388.156 714 328.312 761.656 262.906 769.031 179.188 778.375 118.781 718 128.188 634.25c9.344-83.844 84.875-159.312 168.656-168.719 20.531-2.312 55.938-6.281 87.406-9.719C383.75 451.594 384 448 384 448h64C448 448 448.25 451.594 447.75 455.812zM555.375 691.312c45.25 5.062 78-27.562 72.875-72.875-5-45.312-45.875-86.156-91.125-91.219-45.375-5.031-78 27.594-72.938 72.906C469.249 645.436 510.125 686.281 555.375 691.312zM294.906 527.219c-45.25 5.062-86.062 45.906-91.125 91.219-5.063 45.313 27.594 77.938 72.812 72.875 45.312-5.031 86.156-45.875 91.222-91.188C372.875 554.812 340.219 522.188 294.906 527.219zM448 448v-192h384V448H448zM0 256h384V448H0V256z" horiz-adv-x="896" />
<glyph glyph-name="gist" unicode="&#xf00e;" d="M416 448l96-96-96-96 64-64 160 160-160 160-64-64z m-416 320v-832h768v832h-768z m704-768h-640v704h640v-704z m-352 256l-96 96 96 96-64 64-160-160 160-160 64 64z" horiz-adv-x="768" />
<glyph glyph-name="gist-secret" unicode="&#xf08c;" d="M193 128l128-192h-256l-65 256 257 64-64-128z m448 128l64-128-128-192h256l64 256-256 64z m-84 0h-216l44-102-64-218h256l-64 218 44 102z m84 192h-384l-128-64h640l-128 64z m-64 256l-128-64-128 64-64-192h384l-64 192z" horiz-adv-x="896" />
<glyph glyph-name="git-branch" unicode="&#xf020;" d="M512 640c-71 0-128-57-128-128 0-47 26-88 64-110v-18c0-64-64-128-128-128-53 0-95-11-128-29v303c38 22 64 63 64 110 0 71-57 128-128 128s-128-57-128-128c0-47 26-88 64-110v-419c-38-22-64-63-64-110 0-71 57-128 128-128s128 57 128 128c0 34-13 64-34 87 19 23 49 41 98 41 128 0 256 128 256 256v18c38 22 64 63 64 110 0 71-57 128-128 128z m-384 64c35 0 64-29 64-64s-29-64-64-64-64 29-64 64 29 64 64 64z m0-768c-35 0-64 29-64 64s29 64 64 64 64-29 64-64-29-64-64-64z m384 512c-35 0-64 29-64 64s29 64 64 64 64-29 64-64-29-64-64-64z" horiz-adv-x="640" />
<glyph glyph-name="git-commit" unicode="&#xf01f;" d="M694.875 384C666.375 494.219 567.125 576 448 576c-119.094 0-218.375-81.781-246.906-192H0v-128h201.094C229.625 145.75 328.906 64 448 64c119.125 0 218.375 81.75 246.875 192H896V384H694.875zM448 192c-70.656 0-128 57.375-128 128 0 70.656 57.344 128 128 128 70.625 0 128-57.344 128-128C576 249.375 518.625 192 448 192z" horiz-adv-x="896" />
<glyph glyph-name="git-compare" unicode="&#xf0ac;" d="M832 110s0 306 0 402-96 192-192 192c-64 0-64 0-64 0v128l-192-192 192-192v128s32 0 64 0 64-32 64-64 0-402 0-402c-38-22-64-63-64-110 0-71 57-128 128-128s128 57 128 128c0 47-26 88-64 110z m-64-174c-35 0-64 29-64 64s29 64 64 64 64-29 64-64-29-64-64-64z m-448 128s-32 0-64 0-64 32-64 64 0 402 0 402c38 22 64 63 64 110 0 71-57 128-128 128s-128-57-128-128c0-47 26-88 64-110 0 0 0-306 0-402s96-192 192-192c64 0 64 0 64 0v-128l192 192-192 192v-128z m-192 512c-35 0-64 29-64 64s29 64 64 64 64-29 64-64-29-64-64-64z" horiz-adv-x="896" />
<glyph glyph-name="git-merge" unicode="&#xf023;" d="M640 384c-47.625 0-88.625-26.312-110.625-64.906C523.625 319.5 518 320 512 320c-131.062 0-255.438 99.844-300.812 223.438C238.469 566.906 256 601.281 256 640c0 70.656-57.344 128-128 128S0 710.656 0 640c0-47.219 25.844-88.062 64-110.281V110.25C25.844 88.06200000000001 0 47.25 0 0c0-70.625 57.344-128 128-128s128 57.375 128 128c0 47.25-25.844 88.062-64 110.25V340.531C276.156 251.5 392.375 192 512 192c6.375 0 11.625 0.438 17.375 0.625C551.5 154.188 592.5 128 640 128c70.625 0 128 57.375 128 128C768 326.656 710.625 384 640 384zM128-64c-35.312 0-64 28.625-64 64 0 35.312 28.688 64 64 64 35.406 0 64-28.688 64-64C192-35.375 163.406-64 128-64zM128 576c-35.312 0-64 28.594-64 64s28.688 64 64 64c35.406 0 64-28.594 64-64S163.406 576 128 576zM640 192c-35.312 0-64 28.625-64 64 0 35.406 28.688 64 64 64 35.375 0 64-28.594 64-64C704 220.625 675.375 192 640 192z" horiz-adv-x="768" />
<glyph glyph-name="git-pull-request" unicode="&#xf009;" d="M704 110s0 306 0 402-96 192-192 192c-64 0-64 0-64 0v128l-192-192 192-192v128s32 0 64 0 64-32 64-64 0-402 0-402c-38-22-64-63-64-110 0-71 57-128 128-128s128 57 128 128c0 47-26 88-64 110z m-64-174c-35 0-64 29-64 64s29 64 64 64 64-29 64-64-29-64-64-64z m-512 832c-71 0-128-57-128-128 0-47 26-88 64-110v-419c-38-22-64-63-64-110 0-71 57-128 128-128s128 57 128 128c0 47-26 88-64 110v419c38 22 64 63 64 110 0 71-57 128-128 128z m0-832c-35 0-64 29-64 64s29 64 64 64 64-29 64-64-29-64-64-64z m0 640c-35 0-64 29-64 64s29 64 64 64 64-29 64-64-29-64-64-64z" horiz-adv-x="768" />
<glyph glyph-name="globe" unicode="&#xf0b6;" d="M512 704c-212.077 0-384-171.923-384-384s171.923-384 384-384c25.953 0 51.303 2.582 75.812 7.49-9.879 4.725-10.957 40.174-1.188 60.385 10.875 22.5 45 79.5 11.25 98.625s-24.375 27.75-45 49.875-12.19 25.451-13.5 31.125c-4.5 19.5 19.875 48.75 21 51.75s1.125 14.25 0.75 17.625S545.75 265.25 542 265.625s-5.625-6-10.875-6.375-28.125 13.875-33 17.625-7.125 12.75-13.875 19.5-7.5 1.5-18 5.625-44.25 16.5-70.125 27-28.125 25.219-28.5 35.625-15.75 25.5-22.961 36.375c-7.209 10.875-8.539 25.875-11.164 22.5s13.5-42.75 10.875-43.875-8.25 10.875-15.75 20.625 7.875 4.5-16.125 51.75 7.5 71.344 9 96 20.25-9 10.5 6.75 0.75 48.75-6.75 60.75S275 602 275 602c1.125 11.625 37.5 31.5 63.75 49.875s42.281 4.125 63.375-2.625 22.5-4.5 15.375 2.25 3 10.125 19.5 7.5 21-22.5 46.125-20.625 2.625-4.875 6-11.25-3.75-5.625-20.25-16.875S469.25 599 498.5 577.625s20.25 14.25 17.25 30S537.125 611 537.125 611c18-12 14.674-0.66 27.799-4.785S613.625 572 613.625 572c-44.625-24.375-16.5-27-9-32.625s-15.375-16.5-15.375-16.5c-9.375 9.375-10.875-0.375-16.875-3.75s-0.375-12-0.375-12c-31.031-4.875-24-37.5-23.625-45.375s-19.875-19.875-25.125-31.125S536.75 395 527 393.5s-19.5 36.75-72 22.5c-15.828-4.297-51-22.5-32.25-59.625s49.875 10.5 60.375 5.25-3-28.875-0.75-29.25 29.625-1.031 31.125-33 41.625-29.25 50.25-30 37.5 23.625 41.625 24.75S626 309.125 662 288.5s54.375-17.625 66.75-26.25 3.75-25.875 15.375-31.5 58.125 1.875 69.75-17.25-48-115.125-66.75-125.625S719.75 53.375 701 38s-45-34.406-69.75-49.125c-21.908-13.027-25.85-36.365-35.609-43.732C767.496-16.67999999999995 896 136.64999999999998 896 320 896 532.077 724.077 704 512 704zM602 343.625c-5.25-1.5-16.125-11.25-42.75 4.5s-45 12.75-47.25 15.375c0 0-2.25 6.375 9.375 7.5 23.871 2.311 54-22.125 60.75-22.5s10.125 6.75 22.125 2.883C616.25 347.52 607.25 345.125 602 343.625zM476.375 665.75c-2.615 1.902 2.166 4.092 5.016 7.875 1.645 2.186 0.425 5.815 2.484 7.875 5.625 5.625 33.375 13.5 27.949-1.875C506.4 664.25 480.5 662.75 476.375 665.75zM543.5 617c-9.375 0.375-31.443 2.707-27.375 6.75 15.844 15.75-6 20.25-19.5 21.375S477.5 653.75 484.25 654.5s33.75-0.375 38.25-4.125 28.875-13.5 30.375-20.625S552.875 616.625 543.5 617zM624.875 619.625c-7.5-6-45.24 21.529-52.5 27.75-31.5 27-48.375 18-54.99 22.5-6.617 4.5-4.26 10.5 5.865 19.5s38.625-3 55.125-4.875 35.625-14.625 36-29.781C614.75 639.564 632.375 625.625 624.875 619.625z" horiz-adv-x="1024" />
<glyph glyph-name="graph" unicode="&#xf043;" d="M704 576H512v-640h192V576zM960 384H768v-448h192V384zM64-128V0h64v64H64V192h64v64H64V384h64v64H64V576h64v64H64V768h64V832H0v-1024h1024v64H64zM448 256H256v-320h192V256z" horiz-adv-x="1024" />
<glyph glyph-name="heart" unicode="&#x2665;" d="M384-32c399 314 384 425 384 512s-72 192-192 192-192-128-192-128-72 128-192 128-192-105-192-192-15-198 384-512z" horiz-adv-x="768.199" />
<glyph glyph-name="history" unicode="&#xf07e;" d="M448 768c-90.938 0-175.312-27.531-245.938-74.062L128 768v-256h256l-88 88c45.438 24.688 96.688 40 152 40 176.75 0 320-143.219 320-320 0-176.75-143.25-320-320-320-176.781 0-320 143.25-320 320 0 45.562 9.781 88.781 27 128H64v99.406C24.312 480.5 0 403.406 0 320c0-247.438 200.562-448 448-448 247.438 0 448 200.562 448 448C896 567.438 695.438 768 448 768zM447.031 1L512 64V256h128l64 64-64 64H512l-64 64L320 320l64-64v-192L447.031 1z" horiz-adv-x="896" />
<glyph glyph-name="home" unicode="&#xf08d;" d="M192 256l64-384h192V192h128v-320h192l64 384L512 576 192 256zM832 448V704H704l0.312-128.312L512 768 0 256h128l384 384 384-384h128L832 448z" horiz-adv-x="1024" />
<glyph glyph-name="horizontal-rule" unicode="&#xf070;" d="M63.938 384h128v-128h64V639.938h-64V448h-128V639.938H0V256h63.938V384zM639.875 256V384h-63.938v-128H639.875zM639.875 448V575.938h-63.938V448H639.875zM447.938 448V575.938h128v64h-192V256h64V384h128v64H447.938zM0 0h639.875V128H0V0z" horiz-adv-x="639.875" />
<glyph glyph-name="hourglass" unicode="&#xf09e;" d="M571 320c118 85 197 240 197 384 0 71-172 128-384 128s-384-57-384-128c0-144 80-299 197-384-118-85-197-240-197-384 0-71 172-128 384-128s384 57 384 128c0 144-80 299-197 384z m-187 448c141 0 256-29 256-64s-115-64-256-64-256 29-256 64 115 64 256 64z m-64-706c-154-7-238-40-253-82 16 114 75 189 141 251 73 68 112 60 112 103v-273z m-105 352c-70 55-122 130-142 215 70-32 183-53 311-53s241 21 311 53c-20-85-72-160-142-215-24 17-70 34-169 34s-145-17-169-34z m233-352v273c0-43 39-35 112-103 66-62 125-138 141-251-14 41-99 75-253 82z" horiz-adv-x="768" />
<glyph glyph-name="hubot" unicode="&#xf09d;" d="M512 768c-283 0-512-229-512-512 0 0 0-192 0-256s64-128 128-128 704 0 768 0 128 64 128 128 0 256 0 256c0 283-229 512-512 512z m96-768h-192c-18 0-32 14-32 32s14 32 32 32h192c18 0 32-14 32-32s-14-32-32-32z m288 128c0-32-32-64-64-64s-128 0-128 0c0 32-32 64-64 64s-224 0-256 0-64-32-64-64c0 0-96 0-128 0s-64 32-64 64 0 360 0 360c78 129 220 216 384 216s306-87 384-216c0 0 0-328 0-360z m-128 384c-32 0-480 0-512 0s-64-32-64-64 0-96 0-128 32-64 64-64 480 0 512 0 64 32 64 64 0 96 0 128-32 64-64 64z m0-128l-64-64h-128l-64 64-64-64h-128l-64 64v64h64l64-64 64 64h128l64-64 64 64h64v-64z" horiz-adv-x="1024" />
<glyph glyph-name="inbox" unicode="&#xf0cf;" d="M704 640H64L0 256v-256h768V256L704 640zM576 256l-64-128H256l-64 128H79l49 320h512l49-320H576z" horiz-adv-x="768" />
<glyph glyph-name="info" unicode="&#xf059;" d="M448 448c35 0 64 29 64 64s-29 64-64 64-64-29-64-64 29-64 64-64z m0 320c-247 0-448-201-448-448s201-448 448-448 448 201 448 448-201 448-448 448z m0-768c-177 0-320 143-320 320s143 320 320 320 320-143 320-320-143-320-320-320z m64 320c0 32-32 64-64 64s-32 0-64 0-64-32-64-64h64s0-160 0-192 32-64 64-64 32 0 64 0 64 32 64 64h-64s0 160 0 192z" horiz-adv-x="896" />
<glyph glyph-name="issue-closed" unicode="&#xf028;" d="M704 515.969l-96-96L768 256l256 256-96 96L769.25 449.219 704 515.969zM512 0c-176.781 0-320 143.25-320 320 0 176.781 143.219 320 320 320 88.375 0 168.375-35.844 226.25-93.75l90.562 90.5C747.75 717.875 635.75 768 512 768 264.562 768 64 567.438 64 320c0-247.438 200.562-448 448-448 247.438 0 448 200.562 448 448L759.75 119.75C768.688 130.75 684.75 0 512 0zM576 576H448v-320h128V576zM448 64h128V192H448V64z" horiz-adv-x="1024" />
<glyph glyph-name="issue-opened" unicode="&#xf026;" d="M448 768C200.562 768 0 567.438 0 320c0-247.438 200.562-448 448-448 247.438 0 448 200.562 448 448C896 567.438 695.438 768 448 768zM448 0c-176.781 0-320 143.25-320 320 0 176.781 143.219 320 320 320 176.75 0 320-143.219 320-320C768 143.25 624.75 0 448 0zM384 64h128V192H384V64zM384 256h128V576H384V256z" horiz-adv-x="896" />
<glyph glyph-name="issue-reopened" unicode="&#xf027;" d="M639.125 64.75C585.75 24.625 520 0 448 0c-176.781 0-320 143.25-320 320 0 45.562 9.781 88.781 27 128H64v99.469C24.312 480.562 0 403.406 0 320c0-247.438 200.562-448 448-448 107.375 0 204.5 39.312 281.75 102.25L768-64V128H576L639.125 64.75zM384 64h128V192H384V64zM512 576H384v-320h128V576zM896 320c0 247.438-200.562 448-448 448-107.406 0-204.531-39.312-281.656-102.344L128 704v-192h192l-63.156 63.156C310.281 615.312 376 640 448 640c176.75 0 320-143.219 320-320 0-45.562-9.75-88.75-27-128h91v-99.5C871.688 159.438 896 236.5 896 320z" horiz-adv-x="896" />
<glyph glyph-name="jersey" unicode="&#xf019;" d="M704 832h-192c0-32-33-64-97-64s-95 32-95 64h-192c0-128-2-384-128-384 0 0-1-544-1-576s32-64 64-64 672 0 704 0 64 32 64 64 0 576 0 576c-126 0-128 256-128 384z m-609-960c-16 0-31 10-31 32 0 32 0 480 0 480 119 64 128 192 128 384h64c0-96 32-191 160-192s160 96 160 192h64c0-186 32-276 64-339v-557s-593 0-609 0z m385 576l-32-32v-320l32-32h128l32 32v320l-32 32h-128z m96-320h-64v256h64v-256z m-352 320l-32-32v-320l32-32h128l32 32v320l-32 32h-128z m96-320h-64v256h64v-256z" horiz-adv-x="896" />
<glyph glyph-name="jump-down" unicode="&#xf072;" d="M767.75 640H0.25L384 256.25 767.75 640zM0 128v-128h768V128H0z" horiz-adv-x="768" />
<glyph glyph-name="jump-left" unicode="&#xf0a5;" d="M256.25 320L640-63.75v767.5L256.25 320zM0-64h128V704H0V-64z" horiz-adv-x="640" />
<glyph glyph-name="jump-right" unicode="&#xf0a6;" d="M0-63.75L383.75 320 0 703.812V-63.75zM512 704v-768h128V704H512z" horiz-adv-x="640" />
<glyph glyph-name="jump-up" unicode="&#xf073;" d="M0.188 0h767.5L384 383.75 0.188 0zM0 640v-128h768V640H0z" horiz-adv-x="768" />
<glyph glyph-name="key" unicode="&#xf049;" d="M640.9 768.1c-141.4 0-256-114.6-256-256 0-19.6 2.2-38.6 6.4-56.9L0 64v-64l64-64h128l64 64v64h64v64h64v64h128l70.8 70.8c18.7-4.3 38.1-6.6 58.1-6.6 141.4 0 256 114.6 256 256S782.2 768.1 640.9 768.1zM384 320L64 0v64l320 320V320zM704 512c-35.3 0-64 28.7-64 64 0 35.3 28.7 64 64 64s64-28.7 64-64C768 540.7 739.3 512 704 512z" horiz-adv-x="896.9" />
<glyph glyph-name="keyboard" unicode="&#xf00d;" d="M640 256h64V384h-64V256zM768 576h-64v-128h64V576zM640 576h-64v-128h64V576zM512 256h64V384h-64V256zM384 64h320V192H384V64zM768 256h128V576h-64v-192h-64V256zM256 64h64V192h-64V64zM768 64h128V192H768V64zM512 576h-64v-128h64V576zM192 384h-64v-128h64V384zM192 192h-64v-128h64V192zM0 704v-768h1024V704H0zM960 0H64V640h896V0zM384 256h64V384h-64V256zM256 576H128v-128h128V576zM384 576h-64v-128h64V576zM256 256h64V384h-64V256z" horiz-adv-x="1024" />
<glyph glyph-name="law" unicode="&#xf0d8;" d="M514 640c34 1 61 28 62 62 1 37-29 67-66 66-34-1-61-28-62-62-1-37 29-67 66-66z m464-384h-18l-127 246c18 2 36 9 52 16 24 11 29 43 11 62l-1 1c-11 11-28 15-43 8-14-6-34-13-53-13-56 0-81 64-287 64s-231-64-287-64c-20 0-39 6-53 13-15 6-32 3-43-8l-1-1c-18-19-13-50 11-62 16-8 34-14 52-16l-127-246h-18c-8 0-14-7-13-15 11-64 92-113 191-113s180 49 191 113c1 8-5 15-13 15h-18l-127 245c83 7 127 49 191 49v-486c-35 0-64-29-64-64h-71c-28 0-57-29-57-64h512c0 35-29 64-71 64h-57c0 35-29 64-64 64v486c64 0 108-42 191-49l-127-245h-18c-8 0-14-7-13-15 11-64 92-113 191-113s180 49 191 113c1 8-5 15-13 15z m-658 0h-192l96 180 96-180z m384 0l96 180 96-180h-192z" horiz-adv-x="1024" />
<glyph glyph-name="light-bulb" unicode="&#xf000;" d="M512 768c-176.731 0-320-143.269-320-320 0-104.69 50.278-197.633 128-256.015V0c0-35.346 28.653-64 64-64 0-35.346 28.653-64 64-64h128c35.347 0 64 28.654 64 64 35.347 0 64 28.654 64 64V191.985C781.722 250.36699999999996 832 343.31 832 448 832 624.731 688.731 768 512 768zM640 32c0-17.673-14.326-32-32-32H416c-17.674 0-32 14.327-32 32v32h256V32zM704 278.693c-33.234-33.03-64-42.389-64-124.041V128h-64V256l128 128v64l-64 64-64-64-64 64-64-64-64 64-64-64v-64l128-128v-128h-64v26.652c0 81.652-30.766 91.011-64 124.041C280.177 323.82 256 383.082 256 448c0 141.385 114.615 256 256 256s256-114.615 256-256C768 383.082 743.823 323.82 704 278.693zM512 256L384 384v64l64-64 64 64 64-64 64 64v-64L512 256z" horiz-adv-x="1024" />
<glyph glyph-name="link" unicode="&#xf05c;" d="M768 576h-138c48-32 93-89 107-128h30c65 0 128-64 128-128s-65-128-128-128h-192c-63 0-128 64-128 128 0 23 7 45 18 64h-137c-5-21-8-42-8-64 0-128 127-256 255-256s65 0 193 0 256 128 256 256-128 256-256 256z m-481-384h-30c-65 0-128 64-128 128s65 128 128 128h192c63 0 128-64 128-128 0-23-7-45-18-64h137c5 21 8 42 8 64 0 128-127 256-255 256s-65 0-193 0-256-128-256-256 128-256 256-256h138c-48 32-93 89-107 128z" horiz-adv-x="1024" />
<glyph glyph-name="link-external" unicode="&#xf07f;" d="M640 64H128V574.094L256 576V704H0v-768h768V256H640V64zM384 704l128-128L320 384l128-128 192 192 128-128V704H384z" horiz-adv-x="768" />
<glyph glyph-name="list-ordered" unicode="&#xf062;" d="M320 256h448v128h-448v-128z m0-256h448v128h-448v-128z m0 640v-128h448v128h-448z m-241-256h78v256h-36l-85-23v-50l43 2v-185z m110-206c0 36-12 78-96 78-33 0-64-6-83-16l1-66c21 10 42 15 67 15s32-11 32-28c0-26-30-58-110-112v-50h192v67l-91-2c49 30 87 66 87 113l1 1z" horiz-adv-x="768" />
<glyph glyph-name="list-unordered" unicode="&#xf061;" d="M0 256h128v128h-128v-128z m0 256h128v128h-128v-128z m0-512h128v128h-128v-128z m256 256h512v128h-512v-128z m0 256h512v128h-512v-128z m0-512h512v128h-512v-128z" horiz-adv-x="768" />
<glyph glyph-name="location" unicode="&#xf060;" d="M320 832c-177 0-320-143-320-320s160-416 320-704c160 288 320 527 320 704s-143 320-320 320z m0-448c-71 0-128 57-128 128s57 128 128 128 128-57 128-128-57-128-128-128z" horiz-adv-x="640" />
<glyph glyph-name="lock" unicode="&#xf06a;" d="M704 384c-32 0-64 0-64 0s0 64 0 192-128 256-256 256-256-128-256-256 0-192 0-192-32 0-64 0-64-32-64-64 0-416 0-448 32-64 64-64 608 0 640 0 64 32 64 64 0 416 0 448-32 64-64 64z m-192-128h-384v-64h384v-64h-384v-64h384v-64h-384v-64h384v-64h-448v448h448v-64z m0 128h-256s0 128 0 192 64 128 128 128 128-64 128-128 0-192 0-192z" horiz-adv-x="768" />
<glyph glyph-name="logo-github" unicode="&#xf092;" d="M552.73 499.865H311.557c-6.205 0-11.25-5.045-11.25-11.297v-117.887c0-6.252 5.045-11.272 11.25-11.272h94.109v-146.542c0 0-21.145-7.057-79.496-7.057-68.914 0-165.156 25.244-165.156 236.795 0 211.642 100.197 239.491 194.307 239.491 81.465 0 116.514-14.304 138.869-21.241 7.01-2.203 13.404 4.831 13.404 11.105L534.543 785.87c0 2.912-1.041 6.417-4.262 8.785C521.186 801.048 465.865 832 326.168 832 165.133 832 0 763.513 0 434.243 0 105.02099999999996 189.051 56 348.381 56c131.883 0 212.021 56.314 212.021 56.314 3.268 1.801 3.6 6.395 3.6 8.479V488.568C563.955 494.773 558.887 499.865 552.73 499.865zM1772.381 803.866h-135.695c-6.252 0-11.271-5.044-11.271-11.296v-262.393h-211.619V792.57c0 6.252-5.068 11.296-11.178 11.296h-135.838c-6.111 0-11.084-5.044-11.084-11.296v-710.473c0-6.299 5.021-11.32 11.084-11.32h135.838c6.203 0 11.178 5.068 11.178 11.32V385.933h211.619l-0.475-303.883c0-6.3 5.021-11.272 11.084-11.272h135.885c6.252 0 11.131 5.068 11.131 11.272l0.473 710.521C1783.607 798.822 1778.539 803.866 1772.381 803.866zM714.949 787.763c-48.357 0-87.574-39.572-87.574-88.403 0-48.855 39.217-88.428 87.574-88.428s87.527 39.572 87.527 88.428C802.477 748.19 763.307 787.763 714.949 787.763zM792.861 559.874c0 6.205-5.02 11.344-11.131 11.344H646.32c-6.348 0-11.746-6.394-11.746-12.67 0 0 0-394.654 0-469.867 0-13.735 8.572-17.903 19.703-17.903 0 0 57.688 0 121.959 0 13.311 0 16.814 6.536 16.814 18.188-0.094 25.197-0.094 123.808-0.094 142.942C792.861 250.09500000000003 792.861 559.874 792.861 559.874zM2297.973 570.152h-134.701c-6.158 0-11.084-5.092-11.084-11.344v-348.31c0 0-34.244-25.197-82.934-25.197-48.547 0-61.525 22.024-61.525 69.719 0 47.553 0 303.835 0 303.835 0 6.252-5.068 11.345-11.131 11.345h-136.643c-6.252 0-11.178-5.093-11.178-11.345 0 0 0-185.521 0-326.807 0-141.284 78.766-175.906 186.99-175.906 88.854 0 160.609 49.115 160.609 49.115s3.363-25.766 5.068-28.844c1.422-3.078 5.447-6.158 9.852-6.158h86.58c6.158 0 11.178 5.069 11.178 11.321l0.379 477.278C2309.15 565.0609999999999 2304.129 570.152 2297.973 570.152zM2666.932 586.1610000000001c-76.539 0-128.592-34.148-128.592-34.148V792.57c0 6.252-5.068 11.296-11.131 11.296h-136.264c-6.109 0-11.131-5.044-11.131-11.296l-0.379-710.521c0-6.3 5.068-11.272 11.225-11.272 0 0 94.773 0 94.869 0 4.215 0 7.389 2.179 9.805 5.968 2.369 3.837 5.73 32.775 5.73 32.775s55.557-52.763 161.035-52.763c123.807 0 194.758 62.804 194.758 281.906C2856.859 557.482 2743.471 586.1610000000001 2666.932 586.1610000000001zM2613.791 185.77499999999998c-46.701 1.421-78.34 22.64-78.34 22.64v225.07c0 0 31.307 19.206 69.672 22.593 48.547 4.31 95.438-10.326 95.438-126.13C2700.322 207.94100000000003 2679.199 183.83399999999995 2613.791 185.77499999999998zM1185.125 188.33299999999997c-5.969 0-21.219-2.368-36.85-2.368-49.92 0-66.971 23.256-66.971 53.331 0 30.218 0 199.85 0 199.85h101.926c6.252 0 11.178 5.044 11.178 11.343v109.48c0.094 6.299-4.926 11.344-11.178 11.344h-101.926l-0.143 134.535c0 5.092-2.699 7.625-8.572 7.625H933.861c-5.352 0-8.336-2.391-8.336-7.578v-139.035c0 0-69.576-16.79-74.266-18.188-4.641-1.326-8.051-5.684-8.051-10.822v-87.408c0-6.252 5.068-11.344 11.178-11.344h71.139c0 0 0-91.34 0-210.222 0-156.109 109.553-171.455 183.439-171.455 33.723 0 74.076 10.988 80.848 13.356 4.074 1.421 6.395 5.637 6.395 10.136l0.047 96.101C1196.254 183.312 1190.998 188.428 1185.125 188.33299999999997z" horiz-adv-x="2856.857" />
<glyph glyph-name="mail" unicode="&#xf03b;" d="M0 640v-640h896V640H0zM768 576L448 312 128 576H768zM64 512l252.031-191.625L64 128V512zM128 64l254 206.25L448 220l65.875 50.125L768 64H128zM832 128L579.625 320.062 832 512V128z" horiz-adv-x="896" />
<glyph glyph-name="mail-read" unicode="&#xf03c;" d="M576 448H256v-64h320V448zM384 576H256v-64h128V576zM768 603.469V704H627.188L448 832 268.812 704H128v-100.531L0 512v-640h896V512L768 603.469zM192 640h512v-244.812L448 184 192 395.188V640zM64 384l252.031-191.625L64 0V384zM128-64l254 206.25L448 92l65.875 50.125L768-64H128zM832 0L579.625 192.062 832 384V0z" horiz-adv-x="896" />
<glyph glyph-name="mail-reply" unicode="&#xf051;" d="M384 672l-384-288 384-288v192c111 0 329-61 384-280 0 291-196 451-384 472v192z" horiz-adv-x="768" />
<glyph glyph-name="mark-github" unicode="&#xf00a;" d="M512 832c-283 0-512-229-512-512 0-226 147-418 350-486 26-5 35 11 35 25 0 12-1 53-1 95-104-23-156 20-173 60-11 27-25 55-57 75-34 22-19 34 4 31 29-3 58-17 79-53 43-75 117-57 149-43 5 33 18 56 33 68-114 13-233 57-233 253 0 56 20 102 53 137-5 13-23 65 5 136 0 0 43 14 141-53 41 11 85 17 128 17 44 0 87-6 128-17 98 66 141 53 141 53 28-71 10-123 5-136 33-36 53-82 53-137 0-197-120-240-234-253 18-16 35-47 35-95 0-68-1-124-1-141 0-14 9-30 35-25 203 68 350 260 350 486 0 283-229 512-512 512z" horiz-adv-x="1024" />
<glyph glyph-name="markdown" unicode="&#xf0c9;" d="M950.154 640H73.846C33.127 640 0 606.873 0 566.154v-492.308C0 33.125 33.127 0 73.846 0h876.308c40.721 0 73.846 33.125 73.846 73.846V566.154C1024 606.873 990.875 640 950.154 640zM576 128.125L448 128V320l-96-123.077L256 320v-192H128V512h128l96-128 96 128 128 0.125V128.125zM767.091 96.125L608 320h96V512h128v-192h96L767.091 96.125z" horiz-adv-x="1024" />
<glyph glyph-name="megaphone" unicode="&#xf077;" d="M832 800c-130 0-124-130-704-128C57.344 672 0 557.375 0 416s57.344-256 128-256c22.781 0 43.188-0.5 64.188-0.875L256-128l192-32 64 96-45.125 203.125C709.375 102.875 733.75 32 832 32c106 0 192 172 192 384C1024 628.031 938 800 832 800zM197 349.062c-39.188 1.469-82.188 2.25-127.562 2.625C66 371.406 64 393.094 64 416c0 88.375 28.688 192 64 192 39.031-0.125 75 0.438 109 1.406C209.656 562.438 192 493.688 192 416 192 392.688 194.062 370.562 197 349.062zM261.312 346.062C258.125 368.312 256 391.625 256 416c0 79.5 18.438 149.5 46.906 196.219 155.156 8.312 251.906 28.469 319.031 50.188C593.625 595.531 576 510.344 576 416c0-40 3.875-78 9.5-114.312C513.344 320.375 412.812 337.406 261.312 346.062zM832 128c-12.125 0-23.688 5.062-34.812 12.125-15.25 67.312-83.438 418.344 117.438 494.188C942.125 581.5 960 503.812 960 416 960 257 902.625 128 832 128z" horiz-adv-x="1024" />
<glyph glyph-name="mention" unicode="&#xf0be;" d="M466.697 732.899C238.66 760.898 31.1 598.735 3.102 370.698c-28-228.038 134.163-435.598 362.2-463.597 71.429-8.756 145.115 0.913 213.325 29.946l-0.016 0.032c24.404 10.357 35.788 38.538 25.431 62.939-10.359 24.403-38.538 35.787-62.94 25.43l-0.001 0.004c-52.472-22.339-109.15-29.799-164.1-23.067-175.413 21.538-300.153 181.2-278.616 356.613 21.538 175.413 181.199 300.154 356.613 278.616 175.412-21.538 300.154-181.199 278.617-356.612-4.309-35.083-21.542-55.725-61.6-55.725-42.5 0-64 45.889-64 81.222V432c0 26.51-21.49 48-48 48-9.699 0-18.72-2.887-26.269-7.833-25.684 20.259-57.437 33.87-94.349 38.402-105.246 12.923-201.045-61.924-213.967-167.17C212.508 238.15200000000004 287.354 142.35400000000004 392.6 129.43200000000002c57.379-7.045 116.216 14.707 157.871 53.13 24.959-28.124 59.866-47.624 100.121-52.567 87.707-10.769 167.537 51.602 178.307 139.309C856.898 497.34 694.734 704.899 466.697 732.899zM511.285 308.30100000000004c-6.462-52.623-54.361-90.047-106.985-83.585-52.623 6.461-90.046 54.36-83.585 106.984 6.461 52.623 54.361 90.046 106.984 83.585C480.322 408.823 517.746 360.924 511.285 308.30100000000004z" horiz-adv-x="832" />
<glyph glyph-name="microscope" unicode="&#xf089;" d="M617-64c86.312 18.75 151 100 151 192 0 58.438-26.625 110.125-67.875 145.375C702.5 288.625 704 304.125 704 320c0 104.844-49.875 197.875-128 256l64 64v64l64 64L640 832l-64-64h-64L256 512l-128-64v-128l64-64h128l64 128 96 96c55.5-33.406 96-90.438 96-160-106.062 0-192-85.938-192-192H0v-64h192c19.125-14.25 42.062-22.125 64-32v-96H128L0-192h768L640-64H617zM512 128c0 35.375 28.625 64 64 64s64-28.625 64-64c0-35.312-28.625-64-64-64S512 92.68799999999999 512 128z" horiz-adv-x="768" />
<glyph glyph-name="milestone" unicode="&#xf075;" d="M704 640H0v-256h704l128 128L704 640zM448 448H320V576h128V448zM448 832H320v-128h128V832zM320-192h128V320H320V-192z" horiz-adv-x="832" />
<glyph glyph-name="mirror" unicode="&#xf024;" d="M320 512L128 320l192-192V256h384v-128l192 192L704 512v-128H320V512zM512 832L0 512v-704l512 256 512-256V512L512 832zM960-64L576 128v64H448v-64L64-64V448l384 256v-256h128V704l384-256V-64z" horiz-adv-x="1024" />
<glyph glyph-name="mortar-board" unicode="&#xf0d7;" d="M501 244l-245 76s0-96 0-160 115-96 256-96 256 32 256 96 0 160 0 160l-245-76c-7-2-15-2-23 0h1z m18 409c-4 1-9 1-13 0l-489-152c-21-7-21-36 0-43l111-35v-113c-19-11-32-32-32-55 0-12 3-23 9-32-5-9-9-20-9-32v-165c0-35 128-35 128 0v165c0 12-3 23-9 32 5 9 9 20 9 32 0 24-13 44-32 55v93l313-98c4-1 9-1 13 0l489 152c21 7 21 36 0 43l-488 153z m-6-205c-35 0-64 14-64 32s29 32 64 32 64-14 64-32-29-32-64-32z" horiz-adv-x="1024" />
<glyph glyph-name="move-down" unicode="&#xf0a8;" d="M640 512H448V832H192v-320H0l320-384L640 512zM0-192h640V0H0V-192z" horiz-adv-x="640" />
<glyph glyph-name="move-left" unicode="&#xf074;" d="M0 0h192V640H0V0zM704 448V640L320 320l384-320V192h320V448H704z" horiz-adv-x="1024" />
<glyph glyph-name="move-right" unicode="&#xf0a9;" d="M832 640v-640h192V640H832zM320 448H0v-256h320v-192l384 320L320 640V448z" horiz-adv-x="1024" />
<glyph glyph-name="move-up" unicode="&#xf0a7;" d="M0 128h192v-320h256V128h192L320 512 0 128zM0 832v-192h640V832H0z" horiz-adv-x="640" />
<glyph glyph-name="mute" unicode="&#xf080;" d="M128 448H0v-256h128l256-192h64V640h-64L128 448zM864 416l-64 64-96-96-96 96-63-63.5 95-96.5-96-96 64-64 96 96 96-96 64 64-96 96L864 416z" horiz-adv-x="896" />
<glyph glyph-name="no-newline" unicode="&#xf09c;" d="M896 512v-128H768V512L576 320l192-192V256h192c0 0 64 0.375 64 64s0 192 0 192H896zM224 544C100.281 544 0 443.719 0 320c0-123.75 100.281-224 224-224s224 100.25 224 224C448 443.719 347.719 544 224 544zM96 320c0 70.656 57.344 128 128 128 18.75 0 36.406-4.219 52.469-11.531L107.531 267.5C100.219 283.625 96 301.25 96 320zM224 192c-18.75 0-36.406 4.25-52.469 11.5l168.938 168.969C347.781 356.406 352 338.75 352 320 352 249.375 294.656 192 224 192z" horiz-adv-x="1024" />
<glyph glyph-name="octoface" unicode="&#xf008;" d="M940.812 554.312c8.25 20.219 35.375 101.75-8.562 211.906 0 0-67.375 21.312-219.875-82.906C648.5 700.875 579.875 703.5 512 703.5c-67.906 0-136.438-2.625-200.5-20.25C159.031 787.531 91.719 766.219 91.719 766.219 47.812 656 74.938 574.531 83.188 554.312 31.5 498.438 0 427.125 0 339.656 0 10.437999999999988 213.25-64 510.844-64 808.562-64 1024 10.437999999999988 1024 339.656 1024 427.125 992.5 498.438 940.812 554.312zM512-1c-211.406 0-382.781 9.875-382.781 214.688 0 48.938 24.062 94.595 65.344 132.312 68.75 62.969 185.281 29.688 317.438 29.688 132.25 0 248.625 33.281 317.438-29.625 41.312-37.78 65.438-83.312 65.438-132.312C894.875 8.875 723.375-1 512-1zM351.156 319.562c-42.469 0-76.906-51.062-76.906-114.188s34.438-114.312 76.906-114.312c42.375 0 76.812 51.188 76.812 114.312S393.531 319.562 351.156 319.562zM672.875 319.562C630.5 319.562 596 268.5 596 205.375s34.5-114.312 76.875-114.312 76.812 51.188 76.812 114.312C749.75 268.5 715.312 319.562 672.875 319.562z" horiz-adv-x="1024" />
<glyph glyph-name="organization" unicode="&#xf037;" d="M768 448h-64H576h-64-64-64-64H192h-64C57.344 448 0 390.656 0 320v-64c0-47.25 25.844-88.062 64-110.25V-64h256v-128h256V-64h256V145.75c38.125 22.188 64 62.938 64 110.25v64C896 390.656 838.625 448 768 448zM256 0H128V256H64v64c0 35.312 28.688 64 64 64h81.719c-11-18.875-17.719-40.562-17.719-64v-128c0-47.25 25.844-88.062 64-110.25V0zM576 128V256h-64v-384H384V256h-64v-128c-35.312 0-64 28.625-64 64V320c0 35.312 28.688 64 64 64h256c35.375 0 64-28.688 64-64v-128C640 156.625 611.375 128 576 128zM832 256h-64v-256H640v81.75c38.125 22.188 64 62.938 64 110.25V320c0 23.438-6.75 45.125-17.75 64H768c35.375 0 64-28.688 64-64V256zM303.688 514.625C338.875 474.125 390.156 448 448 448c57.875 0 109.125 26.125 144.312 66.625C614.125 475.062 655.688 448 704 448c70.625 0 128 57.344 128 128s-57.375 128-128 128c-25.625 0-49.375-7.688-69.375-20.688C614.875 768.438 539.062 832 448 832S281.094 768.438 261.375 683.312C241.344 696.312 217.594 704 192 704c-70.656 0-128-57.344-128-128s57.344-128 128-128C240.312 448 281.844 475.062 303.688 514.625zM704 640c35.375 0 64-28.594 64-64s-28.625-64-64-64c-35.312 0-64 28.594-64 64S668.688 640 704 640zM448 768c70.625 0 128-57.344 128-128s-57.375-128-128-128c-70.656 0-128 57.344-128 128S377.344 768 448 768zM192 512c-35.312 0-64 28.594-64 64s28.688 64 64 64c35.406 0 64-28.594 64-64S227.406 512 192 512z" horiz-adv-x="896" />
<glyph glyph-name="package" unicode="&#xf0c4;" d="M480 768L0 640v-576l480-128 480 128V640L480 768zM63.875 111.06600000000003L63.5 544l384.498-102.533 0.001-432.833L63.875 111.06600000000003zM63.5 608l160.254 42.734L640 539.735v-0.135l-160-42.667L63.5 608zM896.125 111.06600000000003L512.001 8.634000000000015l0.001 432.833L640 475.6v-156l128 34.135V509.733L896.5 544 896.125 111.06600000000003zM768 573.733v0.125L351.734 684.862 480 719.066 896.5 608 768 573.733z" horiz-adv-x="1024" />
<glyph glyph-name="paintcan" unicode="&#xf0d1;" d="M384 832C171.923 832 0 660.077 0 448v-64c0-35.346 28.654-64 64-64v-320c0-70.692 143.269-128 320-128s320 57.308 320 128V320c35.346 0 64 28.654 64 64v64C768 660.077 596.077 832 384 832zM576 192v-32c0-17.673-14.327-32-32-32s-32 14.327-32 32v32c0 17.673-14.327 32-32 32s-32-14.327-32-32v-160c0-17.673-14.327-32-32-32s-32 14.327-32 32V160c0 17.673-14.327 32-32 32s-32-14.327-32-32v-32c0-35.346-28.654-64-64-64s-64 28.654-64 64v64c-35.346 0-64 28.654-64 64V371.193C186.382 340.108 279.318 320 384 320s197.618 20.108 256 51.193V256C640 220.654 611.346 192 576 192zM384 384c-107.433 0-199.393 26.474-237.372 64 37.979 37.526 129.939 64 237.372 64s199.393-26.474 237.372-64C583.393 410.474 491.433 384 384 384zM384 576c-176.62 0-319.816-57.236-319.996-127.867-0.001 0.001-0.002 0.001-0.003 0.002C64.075 624.804 207.314 768 384 768c176.731 0 320-143.269 320-320C704 518.692 560.731 576 384 576z" horiz-adv-x="768" />
<glyph glyph-name="pencil" unicode="&#xf058;" d="M704 768L576 640l192-192 128 128L704 768zM0 64l0.688-192.562L192-128l512 512L512 576 0 64zM192-64H64V64h64v-64h64V-64z" horiz-adv-x="896" />
<glyph glyph-name="person" unicode="&#xf018;" d="M448 640C448 746 362.062 832 256 832S64 746 64 640c0-106.062 85.938-192 192-192S448 533.938 448 640zM256 512c-70.656 0-128 57.344-128 128S185.344 768 256 768c70.625 0 128-57.344 128-128S326.625 512 256 512zM384 448H256 128C57.344 448 0 390.656 0 320v-128c0-70.625 57.344-128 128-128v-256h256V64c70.625 0 128 57.375 128 128V320C512 390.656 454.625 448 384 448zM448 192c0-35.375-28.625-64-64-64V256h-64v-384H192V256h-64v-128c-35.312 0-64 28.625-64 64V320c0 35.312 28.688 64 64 64h256c35.375 0 64-28.688 64-64V192z" horiz-adv-x="512" />
<glyph glyph-name="pin" unicode="&#xf041;" d="M196 128l64-320 64 320c-20-2-43-3-64-3s-44 1-64 3z m254 299c-33 17-62 59-62 85v64c0 22 12 39 23 52 15 13 24 29 24 45 0 53-61 95-175 95s-175-42-175-95c0-16 9-32 24-45 11-13 23-30 23-52v-64c0-26-29-68-62-85-38-19-70-54-70-88 0-74 101-148 260-148s260 73 260 148c0 33-31 68-70 88z" horiz-adv-x="519.657" />
<glyph glyph-name="playback-fast-forward" unicode="&#xf0bd;" d="M0 64l384 256L0 576V64zM768 320L384 576v-256-256L768 320z" horiz-adv-x="768" />
<glyph glyph-name="playback-pause" unicode="&#xf0bb;" d="M0 0h192V640H0V0zM320 640v-640h192V640H320z" horiz-adv-x="512" />
<glyph glyph-name="playback-play" unicode="&#xf0bf;" d="M0 640l512-320L0 0V640z" horiz-adv-x="512" />
<glyph glyph-name="playback-rewind" unicode="&#xf0bc;" d="M384 320l384-256V576L384 320zM0 320l384-256V320 576L0 320z" horiz-adv-x="768" />
<glyph glyph-name="plug" unicode="&#xf0d4;" d="M1003.386 627.336l-0.905 0.905c-24.744 24.744-64.861 24.744-89.605 0l-45.707-45.707-90.51 90.51 45.707 45.707c24.744 24.744 24.744 64.861 0 89.605l-0.905 0.905c-24.744 24.744-64.861 24.744-89.605 0l-47.973-47.973C621.76 802.446 537.237 795.66 482.502 740.926l-24.89-24.89c-109.011-109.011-121.948-277.692-38.854-400.892l-4.138-4.138c-62.392-62.392-62.484-163.493-0.275-225.999 12.41-12.469 12.642-33.327 0.121-45.683-12.509-12.343-32.655-12.292-45.101 0.153l-89.427 89.427c-62.637 62.638-164.63 63.747-227.299 1.141-62.542-62.479-62.562-163.829-0.058-226.332l8.763-8.763c24.744-24.744 64.861-24.744 89.605 0l0.905 0.905c24.744 24.744 24.744 64.861 0 89.605l-8.292 8.292c-12.329 12.329-13.085 32.418-1.098 45.081 12.437 13.138 33.174 13.353 45.882 0.645l89.328-89.328c62.92-62.92 165.504-63.814 228.081-0.553 61.793 62.468 61.65 163.161-0.431 225.451-12.55 12.592-12.777 32.866-0.207 45.437l4.151 4.151c123.2-83.095 291.881-70.158 400.892 38.854l24.89 24.89c54.734 54.735 61.52 139.258 20.362 201.382l47.973 47.973C1028.129 562.475 1028.129 602.593 1003.386 627.336zM889.796 333.632c-37.49-37.49-98.274-37.49-135.765 0L527.757 559.906c-37.49 37.49-37.49 98.274 0 135.765 29.556 29.556 73.585 35.804 109.269 18.759l-41.839-41.839c-24.744-24.744-24.744-64.861 0-89.604l0.905-0.905c24.744-24.744 64.861-24.744 89.605 0l45.707 45.707 90.51-90.51-45.707-45.707c-24.744-24.744-24.744-64.861 0-89.605l0.905-0.905c24.744-24.744 64.861-24.744 89.604 0l41.839 41.839C925.6 407.218 919.351 363.188 889.796 333.632z" horiz-adv-x="1024" />
<glyph glyph-name="plus" unicode="&#xf05d;" d="M384 384V640H256v-256H0v-128h256v-256h128V256h256V384H384z" horiz-adv-x="640" />
<glyph glyph-name="podium" unicode="&#xf0af;" d="M320 832c-32 0-64-32-64-64s0-64 0-64h-64l-192-192v-128h192l64-384-128-64v-64h512v64l-128 64 64 384h192v128l-192 192h-256v64s14 0 32 0 32 17 32 32-16 32-32 32 0 0-32 0z m0-832l-53 320h118l-1-320h-64z m-224 512l128 128h32v-64h64v64h224l128-128h-576z" horiz-adv-x="768" />
<glyph glyph-name="primitive-dot" unicode="&#xf052;" d="M-0.088 320c0 141.5 114.5 256 256 256 141.438 0 256-114.5 256-256s-114.562-256-256-256C114.413 64-0.088 178.5-0.088 320z" horiz-adv-x="511.825" />
<glyph glyph-name="primitive-square" unicode="&#xf053;" d="M512 64H0V576h512V64z" horiz-adv-x="512" />
<glyph glyph-name="pulse" unicode="&#xf085;" d="M736 320.062L563.188 486.406 422.406 288 352 729.594 152.438 320.062H0V192h230.406L288 307.188l57.594-345.562L576 288l102.375-96H896V320.062H736z" horiz-adv-x="896" />
<glyph glyph-name="puzzle" unicode="&#xf0c0;" d="M755.75 256.85c-13.95 9.96-28.52 16.59-43.47 19.92-8.84 1.69-18.06 2.33-27.57 1.81-8.99-0.5-17.56-1.68-25.69-3.52-6.1-1.69-12.22-3.89-18.35-6.59-18.18-8.02-33.89-18.12-46.79-30.33-12.22-12.9-22.32-28.62-30.34-46.79-2.7-6.12-4.9-12.24-6.59-18.34-1.84-8.14-3.03-16.7-3.52-25.69-0.52-9.51 0.12-18.73 1.81-27.57 3.33-14.95 9.96-29.52 19.92-43.47 3.89-5.44 8.08-10.4 12.56-14.88 20.06-20.03 45.83-30.7 75.42-34.11 8.92-1.02 18.12-1.68 26.53-4.48 5.12-1.7 9.16-4.08 12.08-7.02 6.65-6.6 7.63-16.1 2.5-27.24-3.15-6.84-7.7-13.45-12.96-18.84l-2.79-2.86c-3.93-3.92-6.41-6.4-7.05-7.04-3.13-3.16-6.1-6.15-9.06-9.15l-2.96-2.92c-10.52-10.58-21.09-21.12-31.66-31.65-22.76-22.82-45.57-45.58-68.38-68.36-7.5-7.5-15-15-22.5-22.49-3.46-3.45-7.07-6.38-10.78-8.79-1.8-1.22-3.49-2.24-5.18-3.16-19.6-9.89-41.43-5.92-59.24 11.88-5.4 5.4-10.62 10.62-15.85 15.84-30.25 30.25-60.48 60.52-90.77 90.73-8.59 8.57-17.13 17.08-25.68 25.59-6.12 6.09-12.67 11.85-19.56 17.06-5.72 4.33-11.59 7.56-17.46 9.73-21.16 7.32-41.41 2.01-54.67-13.26-3.81-4.8-7-10.47-9.39-16.94-3.43-9.26-4.6-19.47-5.9-29.36-4.9-37.53-25.8-68.43-55.98-82.65-7.48-3.65-15.49-6.29-23.9-7.78-7.95-1.41-15.95-1.71-23.85-1.04-26.61 1.35-49.48 13.09-68.51 32.57-1.68 1.67-2.1 2.09-2.51 2.51-19.48 19.02-31.22 41.9-32.57 68.5-0.68 7.9-0.37 15.9 1.04 23.85 1.49 8.41 4.13 16.43 7.78 23.9 14.22 30.18 45.13 51.07 82.65 55.97 9.89 1.29 20.1 2.47 29.36 5.9 6.94 2.56 12.96 6.05 17.97 10.23 14.54 13.15 19.59 32.63 12.84 52.34-2.78 7.35-6 13.22-10.33 18.94-5.21 6.88-10.97 13.43-17.06 19.55-8.51 8.55-17.03 17.09-25.55 25.63-26.92 26.98-53.84 53.88-80.75 80.78l-10.03 10.03c-5.22 5.22-10.45 10.45-15.26 15.27-18.39 18.4-22.35 40.22-12.46 59.82 0.92 1.69 1.94 3.37 3.08 5.05 2.49 3.84 5.42 7.45 8.87 10.91 7.49 7.5 14.99 15 22.49 22.5 22.77 22.81 45.54 45.62 68.36 68.38 10.53 10.57 21.06 21.14 31.65 31.66l2.92 2.96c2.99 2.97 5.99 5.93 8.98 8.9 0.8 0.81 3.28 3.29 7.2 7.22l2.86 2.79c5.39 5.26 12 9.8 18.84 12.96 11.14 5.13 20.63 4.15 27.24-2.5 2.94-2.92 5.32-6.96 7.02-12.08 2.79-8.41 3.45-17.61 4.48-26.53 3.41-29.59 14.08-55.35 34.11-75.41 4.49-4.48 9.44-8.67 14.88-12.56 13.95-9.96 28.52-16.59 43.47-19.92 8.84-1.69 18.06-2.33 27.57-1.81 8.99 0.5 17.56 1.68 25.69 3.52 6.1 1.69 12.22 3.89 18.35 6.59 18.18 8.02 33.89 18.12 46.79 30.33 12.22 12.9 22.32 28.62 30.34 46.79 2.7 6.12 4.9 12.24 6.59 18.34 1.84 8.14 3.03 16.7 3.52 25.69 0.52 9.51-0.12 18.73-1.81 27.57-3.33 14.95-9.96 29.52-19.92 43.47-3.89 5.44-8.08 10.4-12.56 14.88-20.06 20.03-45.83 30.7-75.42 34.11-8.92 1.02-18.12 1.68-26.53 4.48-5.12 1.7-9.16 4.08-12.08 7.02-6.65 6.6-7.63 16.1-2.5 27.24 3.15 6.84 7.7 13.45 12.96 18.84l2.79 2.86c3.93 3.92 6.41 6.4 7.05 7.04 3.13 3.16 6.1 6.15 9.06 9.15l2.96 2.92c10.52 10.58 21.09 21.12 31.66 31.65 22.76 22.82 45.57 45.58 68.38 68.35 7.5 7.5 15 15 22.5 22.49 3.46 3.45 7.07 6.38 10.78 8.79 1.8 1.22 3.49 2.24 5.18 3.16 19.6 9.89 41.43 5.92 59.24-11.88 5.4-5.4 10.62-10.62 15.85-15.84 30.25-30.25 60.48-60.52 90.77-90.73 8.59-8.57 17.13-17.08 25.68-25.59 6.12-6.09 12.67-11.85 19.56-17.06 5.72-4.33 11.59-7.56 17.46-9.73 21.16-7.32 41.41-2.01 54.67 13.26 3.81 4.8 7 10.47 9.39 16.94 3.43 9.26 4.6 19.47 5.9 29.36 4.9 37.53 25.8 68.43 55.98 82.65 7.48 3.65 15.49 6.28 23.9 7.78 7.95 1.41 15.95 1.71 23.85 1.04 26.61-1.35 49.48-13.09 68.51-32.57 1.68-1.67 2.1-2.09 2.51-2.51 19.48-19.02 31.22-41.9 32.57-68.5 0.68-7.9 0.37-15.9-1.04-23.85-1.49-8.41-4.13-16.43-7.78-23.9-14.22-30.18-45.13-51.07-82.65-55.97-9.89-1.29-20.1-2.47-29.36-5.9-6.94-2.56-12.96-6.05-17.97-10.23-14.54-13.15-19.59-32.63-12.84-52.34 2.78-7.35 6-13.22 10.33-18.94 5.21-6.88 10.97-13.43 17.06-19.55 8.51-8.55 17.03-17.09 25.55-25.63 30.26-30.33 60.54-60.56 90.78-90.81 5.22-5.22 10.45-10.45 15.26-15.27 18.39-18.4 22.35-40.22 12.46-59.82-0.92-1.69-1.94-3.37-3.08-5.05-2.49-3.84-5.42-7.45-8.87-10.91-7.49-7.5-14.99-15-22.49-22.5-22.77-22.81-45.54-45.62-68.36-68.38-10.53-10.57-21.06-21.14-31.65-31.66l-2.92-2.96c-2.99-2.97-5.99-5.93-8.98-8.9-0.8-0.81-3.28-3.29-7.2-7.22l-2.86-2.79c-5.39-5.26-12-9.8-18.84-12.96-11.14-5.13-20.63-4.15-27.24 2.5-2.94 2.92-5.32 6.96-7.02 12.08-2.79 8.41-3.45 17.61-4.48 26.53-3.41 29.59-14.08 55.35-34.11 75.41C766.15 248.76999999999998 761.19 252.97000000000003 755.75 256.85z" horiz-adv-x="1024" />
<glyph glyph-name="question" unicode="&#xf02c;" d="M448 64h128v128h-128v-128z m64 512c-96 0-192-96-192-192h128c0 32 32 64 64 64s64-32 64-64c0-64-128-64-128-128h128c64 22 128 64 128 160s-96 160-192 160z m0 256c-283 0-512-229-512-512s229-512 512-512 512 229 512 512-229 512-512 512z m0-896c-212 0-384 172-384 384s172 384 384 384 384-172 384-384-172-384-384-384z" horiz-adv-x="1024" />
<glyph glyph-name="quote" unicode="&#xf063;" d="M0 320v-256h256V320H128c0 0 0 128 128 128V576C256 576 0 576 0 320zM640 448V576c0 0-256 0-256-256v-256h256V320H512C512 320 512 448 640 448z" horiz-adv-x="640" />
<glyph glyph-name="radio-tower" unicode="&#xf030;" d="M306.838 441.261c15.868 16.306 15.868 42.731 0 59.037-20.521 21.116-30.643 48.417-30.705 76.124 0.062 27.77 10.183 55.039 30.705 76.186 15.868 16.337 15.868 42.764 0 59.069-7.934 8.184-18.272 12.275-28.706 12.275-10.371 0-20.804-4.029-28.738-12.213-36.266-37.297-54.633-86.433-54.57-135.317-0.062-48.792 18.305-97.927 54.57-135.161C265.262 424.955 290.97 424.955 306.838 441.261zM149.093 798.858c-8.121 8.309-18.68 12.463-29.3 12.463-10.558 0-21.179-4.154-29.237-12.463C30.8 737.509 0.751 656.856 0.813 576.422 0.751 496.081 30.8 415.272 90.494 353.985c16.181-16.618 42.356-16.618 58.537 0 16.118 16.587 16.118 43.513 0 60.067-43.7 44.98-65.44 103.456-65.44 162.368s21.74 117.449 65.44 162.368C165.149 755.439 165.149 782.365 149.093 798.858zM513.031 472.153c57.351 0 103.956 46.574 103.956 103.956 0 57.382-46.605 103.955-103.956 103.955-57.381 0-103.956-46.573-103.956-103.955C409.076 518.727 455.65 472.153 513.031 472.153zM933.539 798.233c-16.181 16.618-42.355 16.618-58.475 0-16.181-16.587-16.181-43.513 0-60.068 43.668-44.918 65.409-103.456 65.409-162.368 0-58.85-21.805-117.387-65.473-162.306-16.117-16.618-16.117-43.575 0.062-60.068 8.059-8.309 18.616-12.463 29.237-12.463 10.558 0 21.178 4.154 29.236 12.463 59.726 61.287 89.774 142.096 89.649 222.437C1023.313 656.138 993.264 736.947 933.539 798.233zM513.281 389.127L513.281 389.127c-26.489-0.062-53.04 6.466-77.091 19.429L235.057-127.59000000000003h95.209l54.819 63.973h255.891l53.977-63.973h95.272L589.124 408.431C565.384 395.655 539.395 389.127 513.281 389.127zM512.656 358.483L577.004 128.29999999999995H449.059L512.656 358.483zM385.086 0.3550000000000182l63.974 63.973h127.944l63.974-63.973H385.086zM717.194 710.958c-15.868-16.306-15.868-42.731 0-59.037 20.491-21.116 30.611-48.511 30.674-76.124-0.062-27.77-10.183-55.102-30.674-76.187-15.868-16.336-15.868-42.763 0-59.068 7.871-8.184 18.242-12.213 28.737-12.213 10.309 0 20.741 4.029 28.675 12.213 36.298 37.234 54.665 86.433 54.54 135.255 0.125 48.792-18.181 97.927-54.54 135.161C758.801 727.264 733.062 727.264 717.194 710.958z" horiz-adv-x="1024" />
<glyph glyph-name="repo" unicode="&#xf001;" d="M320 576h-64v-64h64v64z m0 128h-64v-64h64v64z m384 128c-32 0-608 0-640 0s-64-32-64-64 0-736 0-768 32-64 64-64 128 0 128 0v-128l96 96 96-96v128s288 0 320 0 64 32 64 64 0 736 0 768-32 64-64 64z m0-800c0-16-15-32-32-32s-288 0-288 0v64h-192v-64s-79 0-96 0-32 17-32 32 0 96 0 96h640s0-80 0-96z m0 160h-512v576h513l-1-576z m-384 128h-64v-64h64v64z m0 128h-64v-64h64v64z" horiz-adv-x="768" />
<glyph glyph-name="repo-clone" unicode="&#xf04c;" d="M320 448h-64v-64h64v64z m-128 320h256v64s-352 0-384 0-64-32-64-64 0-736 0-768 32-64 64-64 128 0 128 0v-128l96 96 96-96v128s286 0 320 0 64 32 64 64 0 192 0 192h-576v576z m512-640s0-79 0-96-14-32-32-32-288 0-288 0v64h-192v-64s-80 0-96 0-32 16-32 32 0 96 0 96h640z m-384 448h-64v-64h64v64z m-64-320h64v64h-64v-64z m704 576c-32 0-288 0-320 0s-64-32-64-64 0-352 0-384 32-64 64-64 64 0 64 0v-64l32 32 32-32v64s160 0 192 0 64 32 64 64 0 352 0 384-32 64-64 64z m-256-448s-15 0-32 0-32 15-32 32 0 32 0 32h64v-64z m256 32c0-16-15-32-32-32s-160 0-160 0v64h192s0-16 0-32z m0 96h-256v256h224s32 0 32-32 0-224 0-224z m-640 192h-64v-64h64v64z" horiz-adv-x="1024" />
<glyph glyph-name="repo-force-push" unicode="&#xf04a;" d="M768 768c0 32-32 64-64 64s-608 0-640 0-64-32-64-64 0-768 0-768 0 32 0 0 32-64 64-64 128 0 128 0v-128l128 128v128h-128v-64s-79 0-96 0-32 15-32 32 0 96 0 96h256v64h-128v576h512v-576h-128v-64h128s0-80 0-96-15-32-32-32-96 0-96 0v-64s96 0 128 0 64 32 64 64 0 736 0 768z m-272-320h144l-192 256-192-256h144l-144-192h128v-448h128v448h128l-144 192z" horiz-adv-x="767.896" />
<glyph glyph-name="repo-forked" unicode="&#xf002;" d="M768 704c0 71-57 128-128 128s-128-57-128-128c0-47 26-89 64-111v-106l-192-212-192 212v106c38 22 64 63 64 111 0 71-57 128-128 128s-128-57-128-128c0-47 26-89 64-111v-156l256-282v-109c-38-22-64-63-64-111 0-71 57-128 128-128s128 57 128 128c0 47-26 89-64 111v109l256 282v156c38 22 64 63 64 111z m-640 63c34 0 62-28 62-62s-28-62-62-62-62 28-62 62 28 62 62 62z m256-891c-34 0-62 28-62 62s28 62 62 62 62-28 62-62-28-62-62-62z m256 891c34 0 62-28 62-62s-28-62-62-62-62 28-62 62 28 62 62 62z" horiz-adv-x="768" />
<glyph glyph-name="repo-pull" unicode="&#xf006;" d="M1024 512l-192 192v-128h-384v-128h384v-128l192 192z m-320-320h-512v576h512v-128h64s0 96 0 128-32 64-64 64-608 0-640 0-64-32-64-64 0-736 0-768 32-64 64-64 128 0 128 0v-128l96 96 96-96v128s288 0 320 0 64 32 64 64 0 384 0 384h-64v-192z m0-160c0-15-15-32-32-32s-288 0-288 0v64h-192v-64s-79 0-96 0-32 16-32 32 0 96 0 96h640s0-81 0-96z m-384 544h-64v-64h64v64z m0 128h-64v-64h64v64z m0-256h-64v-64h64v64z m-64-192h64v64h-64v-64z" horiz-adv-x="1024" />
<glyph glyph-name="repo-push" unicode="&#xf005;" d="M448 512l-192-256h128v-448h128v448h128l-192 256z m-192 0h64v64h-64v-64z m64 192h-64v-64h64v64z m384 128c-32 0-608 0-640 0s-64-32-64-64 0-736 0-768 32-64 64-64 128 0 128 0v-128l128 128v128h-128v-64s-79 0-96 0-32 14-32 32 0 96 0 96h256v64h-128v576h513l-1-576h-128v-64h128s0-79 0-96-15-32-32-32-96 0-96 0v-64s96 0 128 0 64 32 64 64 0 736 0 768-32 64-64 64z" horiz-adv-x="768" />
<glyph glyph-name="rocket" unicode="&#xf033;" d="M716.737 707.944c-71.926-41.686-148.041-96.13-218.436-166.555-45-45.031-81.213-88.78-110.39-129.778L209.538 378.65 0.047 169.00300000000004l186.818-5.815 131.562 131.562c-46.439-96.224-50.536-160.019-50.536-160.019l58.854-58.792c0 0 65.827 6.255 162.737 53.163L355.107-5.119000000000028l5.88-186.881 209.585 209.521 33.086 179.252c41.403 29.02 85.185 65.046 129.716 109.545 70.425 70.455 124.837 146.541 166.555 218.466-45.97 9.351-88.125 28.488-121.397 61.668C745.257 619.819 725.994 661.975 716.737 707.944zM786.161 745.157c5.004-45 19.952-81.274 44.78-105.98 24.769-24.985 60.98-39.902 106.138-44.844C1003.063 727.677 1023.953 832 1023.953 832S919.63 811.142 786.161 745.157z" horiz-adv-x="1024" />
<glyph glyph-name="rss" unicode="&#xf034;" d="M128 192C57.344 192 0 134.625 0 64s57.344-128 128-128 128 57.375 128 128S198.656 192 128 192zM128 448c0 0-64-2-64-64s64-64 64-64c141.375 0 256-114.625 256-256 0 0 0-64 64-64s64 64 64 64C512 276 340.031 448 128 448zM128 704c0 0-64 0-64-64s64-64 64-64c282.75 0 512-229.25 512-512 0 0 0-64 64-64s64 64 64 64C768 417.406 481.5 704 128 704z" horiz-adv-x="768" />
<glyph glyph-name="ruby" unicode="&#xf047;" d="M768 704H256L0 448l512-512 512 512L768 704zM128 448l192 192h384l192-192L512 64 128 448zM704 576H512v-448l320 320L704 576z" horiz-adv-x="1024" />
<glyph glyph-name="screen-full" unicode="&#xf066;" d="M128 64h639.875V576H128V64zM255.938 448h384v-256h-384V448zM64 639.938h191.938v64H0V448h64V639.938zM64 192H0v-255.938h255.938V0H64V192zM639.938 703.938v-64h191.938V448h64V703.938H639.938zM831.875 0H639.938v-63.938h255.938V192h-64V0z" horiz-adv-x="895.875" />
<glyph glyph-name="screen-normal" unicode="&#xf067;" d="M127.938 640.062H0v-64h191.938V768h-64V640.062zM0-0.06200000000001182h127.938V-128h64V63.93799999999999H0V-0.06200000000001182zM768.062 640.062V768h-64v-191.938H896v64H768.062zM704.062-128h64V-0.06200000000001182H896v64H704.062V-128zM192.062 128H704V512H192.062V128zM320 384h256v-128H320V384z" horiz-adv-x="896" />
<glyph glyph-name="search" unicode="&#xf02e;" d="M960 0L710.875 249.125C746.438 307.188 768 374.844 768 448 768 660.031 596 832 384 832 171.969 832 0 660.031 0 448c0-212 171.969-384 384-384 73.156 0 140.812 21.562 198.875 57L832-128c17.5-17.5 46.5-17.375 64 0l64 64C977.5-46.5 977.5-17.5 960 0zM384 192c-141.375 0-256 114.625-256 256s114.625 256 256 256 256-114.625 256-256S525.375 192 384 192z" horiz-adv-x="973.125" />
<glyph glyph-name="server" unicode="&#xf097;" d="M704 448h-640c-35 0-64-32-64-64v-128c0-32 32-64 64-64h640c32 0 64 32 64 64v128c0 32-32 64-64 64z m-576-192h-64v128h64v-128z m128 0h-64v128h64v-128z m128 0h-64v128h64v-128z m128 0h-64v128h64v-128z m192-128h-640c-35 0-64-32-64-64v-128c0-32 32-64 64-64h640c32 0 64 32 64 64v128c0 32-32 64-64 64z m-576-192h-64v128h64v-128z m128 0h-64v128h64v-128z m128 0h-64v128h64v-128z m128 0h-64v128h64v-128z m192 832h-640c-35 0-64-32-64-64v-128c0-32 32-64 64-64h640c32 0 64 32 64 64v128c0 32-32 64-64 64z m-576-192h-64v128h64v-128z m128 0h-64v128h64v-128z m128 0h-64v128h64v-128z m128 0h-64v128h64v-128z m192 64h-64v64h64v-64z" horiz-adv-x="768" />
<glyph glyph-name="settings" unicode="&#xf07c;" d="M64-64h128V128H64V-64zM192 704H64v-320h128V704zM512 704H384v-128h128V704zM0 192h256V320H0V192zM384-64h128V320H384V-64zM320 384h256V512H320V384zM832 704H704v-384h128V704zM640 256v-128h256V256H640zM704-64h128V64H704V-64z" horiz-adv-x="896" />
<glyph glyph-name="sign-in" unicode="&#xf036;" d="M640 256L640 384 896 384 896 512 640 512 640 640 448 496 448 640 192 768 704 768 704 576 768 576 768 832 64 832 64 0 448-192 448 0 768 0 768 320 704 320 704 64 448 64 448 400z" horiz-adv-x="896" />
<glyph glyph-name="sign-out" unicode="&#xf032;" d="M640 64H384V640L128 768h512v-192h64V832H0v-832l384-192V0h320V320h-64V64zM1024 448L768 640v-128H512v-128h256v-128L1024 448z" horiz-adv-x="1024" />
<glyph glyph-name="split" unicode="&#xf0c6;" d="M448 576l-256 256-192-192 311-300c15 81 43 136 133 230l5 6z m128 256l133-133-197-197c-99-99-128-162-128-309v-384h256v384c0 52 19 94 53 128l197 197 133-133v448h-448z" horiz-adv-x="1024" />
<glyph glyph-name="squirrel" unicode="&#xf0b2;" d="M768 768c-141.385 0-256-83.75-256-186.875C512 457.25 544 387 512 192c0 288-177 405.783-256 405.783 3.266 32.17-30.955 42.217-30.955 42.217s-14-7.124-19.354-21.583c-17.231 20.053-36.154 17.54-36.154 17.54l-8.491-37.081c0 0-117.045-40.876-118.635-206.292C56 371 141.311 353.898 201.887 364.882c57.157-2.956 42.991-50.648 30.193-63.446C178.083 247.438 128 320 64 320s-64-64 0-64 64-64 192-64c-198-77 0-256 0-256h-64c-64 0-64-64-64-64s256 0 384 0c192 0 320 64 320 222.182 0 54.34-27.699 114.629-64 162.228C697.057 349.433 782.453 427.566 832 384s192-64 192 128C1024 653.385 909.385 768 768 768zM160 448c-17.674 0-32 14.327-32 32 0 17.674 14.326 32 32 32 17.673 0 32-14.326 32-32C192 462.327 177.673 448 160 448z" horiz-adv-x="1024" />
<glyph glyph-name="star" unicode="&#xf02a;" d="M896 448l-313.5 40.781L448 768 313.469 488.781 0 448l230.469-208.875L171-63.93799999999999l277 148.812 277.062-148.812L665.5 239.125 896 448z" horiz-adv-x="896" />
<glyph glyph-name="steps" unicode="&#xf0c7;" d="M136 768C60.89 768 0 667.71 0 544c0-68.83 17.02-141.84 34-254.54C47.3 201.16999999999996 79.67 128 136 128s94.08 48.79 94.08 137.97c0 30.37-24.97 78.75-26.08 120.03-2.02 74.46 49.93 104.17 49.93 173C253.93 682.71 211.1 768 136 768zM502.97 512c-75.1 0-117.93-85.29-117.93-209 0-68.83 51.95-98.54 49.93-173-1.109-41.28-26.08-89.66-26.08-120.03 0-89.18 37.75-137.97 94.08-137.97s88.7 73.17 102 161.46c16.98 112.7 34 185.71 34 254.54C638.97 411.71 578.08 512 502.97 512z" horiz-adv-x="640" />
<glyph glyph-name="stop" unicode="&#xf08f;" d="M704 832H320L0 512v-384l320-320h384l320 320V512L704 832zM896 192L640-64H384L128 192V448l256 256h256l256-256V192zM448 256h128V576H448V256zM448 64h128V192H448V64z" horiz-adv-x="1024" />
<glyph glyph-name="sync" unicode="&#xf087;" d="M655.461 358.531c11.875-81.719-13.062-167.781-76.812-230.594-94.188-92.938-239.5-104.375-346.375-34.562l74.875 73L31.96 204.75 70.367-64l84.031 80.5c150.907-111.25 364.938-100.75 502.063 34.562 79.5 78.438 115.75 182.562 111.25 285.312L655.461 358.531zM189.46 511.938c94.156 92.938 239.438 104.438 346.313 34.562l-75-72.969 275.188-38.406L697.586 704l-83.938-80.688C462.711 734.656 248.742 724.031 111.585 588.75 32.085 510.344-4.133 406.219 0.335 303.5l112.25-22.125C100.71 363.125 125.71 449.094 189.46 511.938z" horiz-adv-x="768.051" />
<glyph glyph-name="tag" unicode="&#xf015;" d="M384 768H128L0 640v-256l512-512 384 384L384 768zM64 416V608l96 96h192l448-448L512-32 64 416zM448 512L256 320l256-256 192 192L448 512zM352 320l96 96 160-160-96-96L352 320zM320 544c0 53-43 96-96 96s-96-43-96-96 43-96 96-96S320 491 320 544zM224 512c-17.656 0-32 14.344-32 32s14.344 32 32 32 32-14.344 32-32S241.656 512 224 512z" horiz-adv-x="896" />
<glyph glyph-name="telescope" unicode="&#xf088;" d="M76 409c32 8 229 59 229 59-1-6-2-19-2-19 0-71 49-128 128-128s128 59 128 128c0 11-8 22-19 32l49-3s7 2 31 8c-51-14-108 31-126 99s8 135 60 149c-24-6-31-8-31-8l-168-110c-34-9-55-46-46-80 2-9 7-17 12-23-7-12-12-26-15-40-27 1-51 19-59 46-9 34 11 69 45 78l-245-65c-34-9-54-43-45-77s41-54 73-46z m419-153h-128v-64l-320-320h128l192 128v-128h128v128l192-128h128l-320 320v64z m429 448c-18 68-70 110-122 96-69-18-98-28-186-51-51-14-79-80-61-148s74-115 125-102c87 23 117 33 186 51 51 14 76 85 58 154z m-70-90c-17-5-42 17-51 51s-4 66 13 70 42-17 51-51 4-66-13-70z" horiz-adv-x="929.875" />
<glyph glyph-name="terminal" unicode="&#xf0c8;" d="M831 705H63c-35.35 0-64-28.65-64-64v-640c0-35.35 28.65-64 64-64h768c35.35 0 64 28.65 64 64V641C895 676.35 866.35 705 831 705zM127 257l128 128L127 513l64 64 192-192L191 193 127 257zM639 193H383v64h256V193z" horiz-adv-x="896" />
<glyph glyph-name="three-bars" unicode="&#xf05e;" d="M0 640v-128h768v128h-768z m0-384h768v128h-768v-128z m0-256h768v128h-768v-128z" horiz-adv-x="768" />
<glyph glyph-name="thumbsdown" unicode="&#xf0db;" d="M833 258c0-38-31-68-68-68h-111c-5 0-109 4-128-8-19-11-21-101-8-139 12-34 22-100-16-150-23-30-57-25-78-17-23 8-14 50-10 86 4 35-14 93-47 123s-29 58-45 86-41 52-62 86-68 41-132 39v353s93 0 114 2c31 3 72 13 112 26 41 13 128 26 140 26 89 3 174-18 208-24 34-7 60-41 54-77-2-11-6-21-12-29 6-2 11-5 16-9 22-12 36-34 36-60 0-21-9-39-24-52 4-1 8-3 12-5 27-9 47-35 47-65 0-27-16-51-40-62 2-1 4-2 6-4 15-9 26-23 31-40 2-6 3-11 3-18 0-1 0-1 0-2z" horiz-adv-x="1024" />
<glyph glyph-name="thumbsup" unicode="&#xf0da;" d="M833 381c0 38-31 68-68 68h-111c-5 0-109-4-128 8-19 11-21 101-8 139 12 34 22 100-16 150-23 30-57 25-78 17-23-8-14-50-10-86 4-35-14-93-47-123s-29-58-45-86-41-52-62-86-68-41-132-39v-353s93 0 114-2c31-3 72-13 112-26 41-13 128-26 140-26 89-3 174 18 208 24s60 41 54 77c-2 11-6 21-12 29 6 2 11 5 16 9 22 12 36 34 36 60 0 21-9 39-24 52 4 1 8 3 12 5 27 9 47 35 47 65 0 27-16 51-40 62 2 1 4 2 6 4 15 9 26 23 31 40 2 6 3 11 3 18 0 1 0 1 0 2z" horiz-adv-x="1024" />
<glyph glyph-name="tools" unicode="&#xf031;" d="M286.547 366.984c16.843-16.812 81.716-85.279 81.716-85.279l35.968 37.093-56.373 58.248L456.072 491.98c0 0-48.842 47.623-27.468 28.655 20.438 75.903 1.812 160.589-55.842 220.243C315.608 800.064 234.392 819.47 161.425 799.096l123.653-127.715-32.53-125.309-121.06-33.438L7.898 640.3820000000001c-19.718-75.436-0.969-159.339 56.311-218.556C124.302 359.703 210.83 341.453 286.547 366.984zM698.815 242.769L549.694 95.46100000000001l245.932-254.805c20.062-20.812 46.498-31.188 72.872-31.188 26.25 0 52.624 10.375 72.811 31.188 40.249 41.624 40.249 108.997 0 150.62L698.815 242.769zM1023.681 670.162L867.06 832.001 405.387 354.703l56.373-58.248L185.425 10.839000000000055l-63.154-33.749-89.217-145.559 22.719-23.562 140.839 92.247 32.655 65.312 276.336 285.554 56.404-58.248L1023.681 670.162z" horiz-adv-x="1024" />
<glyph glyph-name="trashcan" unicode="&#xf0d0;" d="M704 704H448c0 0 0 24.057 0 32 0 17.673-14.327 32-32 32s-32-14.327-32-32c0-17.673 0-32 0-32H128c-35.346 0-64-28.654-64-64v-64c0-35.346 28.654-64 64-64v-576c0-35.346 28.654-64 64-64h448c35.346 0 64 28.654 64 64V512c35.346 0 64 28.654 64 64v64C768 675.346 739.346 704 704 704zM640-32c0-17.673-14.327-32-32-32H224c-17.673 0-32 14.327-32 32V512h64v-480c0-17.673 14.327-32 32-32s32 14.327 32 32l0.387 480H384v-480c0-17.673 14.327-32 32-32s32 14.327 32 32l0.387 480h64L512 32c0-17.673 14.327-32 32-32s32 14.327 32 32V512h64V-32zM704 592c0-8.837-7.163-16-16-16H144c-8.837 0-16 7.163-16 16v32c0 8.837 7.163 16 16 16h544c8.837 0 16-7.163 16-16V592z" horiz-adv-x="768" />
<glyph glyph-name="triangle-down" unicode="&#xf05b;" d="M0 448l383.75-383.75L767.5 448H0z" horiz-adv-x="767.5" />
<glyph glyph-name="triangle-left" unicode="&#xf044;" d="M0 320.125l383.75-383.75v767.5L0 320.125z" horiz-adv-x="383.75" />
<glyph glyph-name="triangle-right" unicode="&#xf05a;" d="M0.062 703.75L383.812 320 0.062-63.75V703.75z" horiz-adv-x="383.875" />
<glyph glyph-name="triangle-up" unicode="&#xf0aa;" d="M383.75 576L0 192.25h767.5L383.75 576z" horiz-adv-x="767.5" />
<glyph glyph-name="unfold" unicode="&#xf039;" d="M384 448h128V640h128L448 832 256 640h128V448zM576 576v-64h224L672 384H224L96 512h224v64H0v-63.999L160 352 0 192v-64h320v64H96l128 128h448l128-128H576v-64h320v64L736 352l160 160.001V576H576zM512 256H384v-192H256l192-192 192 192H512V256z" horiz-adv-x="896" />
<glyph glyph-name="unmute" unicode="&#xf0ba;" d="M128 448H0v-256h128l256-192h64V640h-64L128 448zM538.51 410.51c-12.496 12.497-32.758 12.497-45.255 0-12.496-12.496-12.496-32.758 0-45.255 24.994-24.993 24.994-65.516 0-90.51-12.496-12.496-12.496-32.758 0-45.255 12.497-12.496 32.759-12.496 45.255 0C588.497 279.47900000000004 588.497 360.523 538.51 410.51zM629.02 501.019c-12.495 12.497-32.758 12.497-45.255 0-12.495-12.496-12.495-32.758 0-45.255 74.981-74.98 74.981-196.548 0-271.528-12.495-12.497-12.495-32.76 0-45.256 12.497-12.496 32.76-12.496 45.255 0C728.994 238.95399999999995 728.994 401.045 629.02 501.019zM719.529 591.529c-12.497 12.497-32.76 12.497-45.255 0-12.496-12.496-12.496-32.758 0-45.255 124.968-124.968 124.968-327.58 0-452.548-12.496-12.497-12.496-32.759 0-45.255 12.495-12.497 32.758-12.497 45.255 0C869.49 198.433 869.49 441.568 719.529 591.529z" horiz-adv-x="896" />
<glyph glyph-name="versions" unicode="&#xf064;" d="M0 128h128v64H64V448h64v64H0V128zM384 640v-640h512V640H384zM768 128H512V512h256V128zM192 64h128v64h-64V512h64v64H192V64z" horiz-adv-x="896" />
<glyph glyph-name="x" unicode="&#xf081;" d="M640 512L512 640 320 448 128 640 0 512l192-192L0 128l128-128 192 192 192-192 128 128L448 320 640 512z" horiz-adv-x="640" />
<glyph glyph-name="zap" unicode="&#x26A1;" d="M640 384H384L576 832 0 256h256L64-192 640 384z" horiz-adv-x="640" />
</font>
</defs>
</svg>
